0
1 Star2 Stars3 Stars4 Stars5 Stars (No Ratings Yet)
Loading...

Kalo Bhromor 2016 AMZN WEB-DL

Kalo Bhromor

(2016) Romance, Thriller 4.1

Kalo Bhromor 2016:Bengali Movies; goldmineshd.club;

Media-Info Kalo Bhromor

Kalo Bhromor 2016 Bengali 1080p AMZN WEB-DL DDP2.0 H264 ESub – WiKi-PiKi.mkv
Format : Matroska
Format version : Version 4
File size : 4.86 GiB
Duration : 1 h 59 min
Overall bit rate : 5 807 kb/s
Movie name : GoldminesHD.Club
Encoded date : UTC 2021-08-15 05:53:17
Writing application : mkvmerge v56.1.0 (‘My Friend’) 64-bit
Writing library : libebml v1.4.2 + libmatroska v1.6.4

Video
ID : 1
Format : AVC
Format/Info : Advanced Video Codec
Format profile : [email protected]
Format settings : CABAC / 4 Ref Frames
Format settings, CABAC : Yes
Format settings, Reference frames : 4 frames
Codec ID : V_MPEG4/ISO/AVC
Duration : 1 h 59 min
Bit rate : 5 581 kb/s
Width : 1 920 pixels
Height : 816 pixels
Display aspect ratio : 2.35:1
Frame rate mode : Constant
Frame rate : 25.000 FPS
Color space : YUV
Chroma subsampling : 4:2:0
Bit depth : 8 bits
Scan type : Progressive
Bits/(Pixel*Frame) : 0.142
Stream size : 4.67 GiB (96%)
Title : [email protected]
Default : Yes
Forced : No
Color range : Limited
Color primaries : BT.709
Transfer characteristics : BT.709
Matrix coefficients : BT.709

Audio
ID : 2
Format : E-AC-3
Format/Info : Enhanced AC-3
Commercial name : Dolby Digital Plus
Codec ID : A_EAC3
Duration : 1 h 59 min
Bit rate mode : Constant
Bit rate : 224 kb/s
Channel(s) : 2 channels
Channel layout : L R
Sampling rate : 48.0 kHz
Frame rate : 31.250 FPS (1536 SPF)
Compression mode : Lossy
Delay relative to video : -80 ms
Stream size : 192 MiB (4%)
Title : [email protected]
Language : Bengali
Service kind : Complete Main
Default : Yes
Forced : No

Text
ID : 3
Format : UTF-8
Codec ID : S_TEXT/UTF8
Codec ID/Info : UTF-8 Plain Text
Duration : 1 h 58 min
Bit rate : 36 b/s
Count of elements : 1448
Stream size : 31.9 KiB (0%)
Title : [email protected]
Language : English
Default : Yes
Forced : No

Screenshots:























Download 1080p – 4.86GB

For All Bengali Movies Click Here

[Fuck You Copy Paster Who Copy Our Post and Don’t Give Us Credit]

Facebook Comments Box

Duration:

Quality: WEB-DL

Release:

Kalo Bhromor 2016 AMZN WEB-DL
Kalo Bhromor 2016 AMZN WEB-DL
Kalo Bhromor 2016 AMZN WEB-DL
Kalo Bhromor 2016 AMZN WEB-DL