0
1 Star2 Stars3 Stars4 Stars5 Stars (No Ratings Yet)
Loading...

Kidnap 2019 AMZN WEB-DL

Kidnap

(2019) Action, Crime, Drama | 130min | June 5, 2019 (India) 5.1
Director: Raja Chanda, Sobbie BawaWriter: N.K. Salil, Gagandeep ThambarStars: Jammy Banerjee, Prantik Banerjee, Sobbie BawaSummary: After stumbling across illegal activities in a shady pub, a photojournalist finds her life in jeopardy. The only person standing between the criminal racket and her is a youngster who is a singer at the pub. Can he save her from the imminent danger?

Photos


See all photos >>

Kidnap 2019:Bengali Movies; goldmineshd.club;

Media-Info Kidnap

Kidnap 2019 Bengali 1080p AMZN WEB-DL DDP2.0 H264 ESub – WiKi-PiKi.mkv
Format : Matroska
Format version : Version 4
File size : 5.41 GiB
Duration : 2 h 4 min
Overall bit rate : 6 211 kb/s
Movie name : GoldminesHD.Club
Encoded date : UTC 2021-08-19 11:13:47
Writing application : mkvmerge v56.1.0 (‘My Friend’) 64-bit
Writing library : libebml v1.4.2 + libmatroska v1.6.4

Video
ID : 1
Format : AVC
Format/Info : Advanced Video Codec
Format profile : [email protected]
Format settings : CABAC / 4 Ref Frames
Format settings, CABAC : Yes
Format settings, Reference frames : 4 frames
Codec ID : V_MPEG4/ISO/AVC
Duration : 2 h 4 min
Bit rate : 5 985 kb/s
Width : 1 920 pixels
Height : 1 080 pixels
Display aspect ratio : 16:9
Frame rate mode : Constant
Frame rate : 24.000 FPS
Color space : YUV
Chroma subsampling : 4:2:0
Bit depth : 8 bits
Scan type : Progressive
Bits/(Pixel*Frame) : 0.120
Stream size : 5.21 GiB (96%)
Title : [email protected]
Default : Yes
Forced : No
Color range : Limited
Color primaries : BT.709
Transfer characteristics : BT.709
Matrix coefficients : BT.709

Audio
ID : 2
Format : E-AC-3
Format/Info : Enhanced AC-3
Commercial name : Dolby Digital Plus
Codec ID : A_EAC3
Duration : 2 h 4 min
Bit rate mode : Constant
Bit rate : 224 kb/s
Channel(s) : 2 channels
Channel layout : L R
Sampling rate : 48.0 kHz
Frame rate : 31.250 FPS (1536 SPF)
Compression mode : Lossy
Stream size : 200 MiB (4%)
Title : [email protected]
Language : Bengali
Service kind : Complete Main
Default : Yes
Forced : No

Text
ID : 3
Format : UTF-8
Codec ID : S_TEXT/UTF8
Codec ID/Info : UTF-8 Plain Text
Duration : 2 h 2 min
Bit rate : 39 b/s
Count of elements : 1448
Stream size : 35.1 KiB (0%)
Title : [email protected]
Language : English
Default : Yes
Forced : No

Kidnap Screenshots:




























WEB-DL Link:

Download 1080p – 5.41GB

WEB-RIP Link:

Download 1080p – 2.93GB

Download 720p – 1.36GB

Download 360p – 386MB

For All Bengali Movies Click Here

Facebook Comments Box

Views: 201

Genre: ActionCrimeDrama

Director: ,

Actors: ,

Country:

Duration: 130 min

Quality: WEB-DL

Release:

IMDb: 5.1

Kidnap 2019 AMZN WEB-DL