0
1 Star2 Stars3 Stars4 Stars5 Stars (No Ratings Yet)
Loading...

Krishna Gaadi Veera Prema Gaadha 2016 Telugu

Krishna Gaadi Veera Prema Gaadha

Тихоня Action, Comedy, Romance, Thriller | 148min | February 12, 2016 (United States) 7.5
Director: Hanu RaghavapudiWriter: Hanu RaghavapudiStars: Nani, Mehreen Pirzada, Murli SharmaSummary: Krishna (Nani) is a coward who is in love with Mahalakshmi (Mehreen Pirzada) and they have kept it a secret. Mahalakshmi is sister of Ramaraju, who in turn is a henchmen of Rajayya. At the same time, Rajayya has a brother, encounter specialist ACP Srikanth (Sampath) who always kills criminals without arresting them. Complications arise as Krishna conveys his love to Mahalakshmi's brother. Another gangster David (Murali Sharma) returns to Hyderabad to fulfill his mother's final wish. But things turn around when ACP Srikanth's kids get kidnapped from Ramaraju's house. Krishna is then left with a huge responsibility of saving three kids from the villains for the sake of his girl. —Soumitra

Photos


See all photos >>

Krishna Gaadi Veera Prema Gaadha

Media-Info Krishna Gaadi Veera Prema Gaadha

Krishna Gaadi Veera Prema Gaadha 2016 1080p WEB-DL H264 AAC2.0 ESub – WiKi-PiKi.mkv
Format : Matroska
Format version : Version 4
File size : 8.02 GiB
Duration : 2 h 20 min
Overall bit rate : 8 184 kb/s
Movie name : GoldminesHD.Club
Encoded date : UTC 2021-09-21 10:08:52
Writing application : mkvmerge v61.0.0 (‘So’) 64-bit
Writing library : libebml v1.4.2 + libmatroska v1.6.4

Video
ID : 1
Format : AVC
Format/Info : Advanced Video Codec
Format profile : [email protected]
Format settings : CABAC / 4 Ref Frames
Format settings, CABAC : Yes
Format settings, Reference frames : 4 frames
Codec ID : V_MPEG4/ISO/AVC
Duration : 2 h 20 min
Bit rate : 8 000 kb/s
Width : 1 920 pixels
Height : 816 pixels
Display aspect ratio : 2.35:1
Frame rate mode : Constant
Frame rate : 25.000 FPS
Color space : YUV
Chroma subsampling : 4:2:0
Bit depth : 8 bits
Scan type : Progressive
Bits/(Pixel*Frame) : 0.204
Stream size : 7.83 GiB (98%)
Title : [email protected]
Writing library : x264 core 138
Encoding settings : cabac=1 / ref=4 / deblock=1:0:0 / analyse=0x3:0x133 / me=umh / subme=9 / psy=1 / psy_rd=1.00:0.00 / mixed_ref=1 / me_range=16 / chroma_me=1 / trellis=2 / 8x8dct=1 / cqm=0 / deadzone=21,11 / fast_pskip=1 / chroma_qp_offset=-2 / threads=4 / lookahead_threads=1 / sliced_threads=0 / nr=0 / decimate=1 / interlaced=0 / bluray_compat=0 / constrained_intra=0 / bframes=3 / b_pyramid=0 / b_adapt=2 / b_bias=0 / direct=3 / weightb=1 / open_gop=0 / weightp=2 / keyint=50 / keyint_min=5 / scenecut=0 / intra_refresh=0 / rc_lookahead=50 / rc=abr / mbtree=1 / bitrate=8000 / ratetol=1.0 / qcomp=0.60 / qpmin=0 / qpmax=69 / qpstep=4 / vbv_maxrate=11200 / vbv_bufsize=16000 / nal_hrd=none / filler=0 / ip_ratio=1.40 / aq=1:1.00
Default : Yes
Forced : No

Audio
ID : 2
Format : AAC LC
Format/Info : Advanced Audio Codec Low Complexity
Codec ID : A_AAC-2
Duration : 2 h 20 min
Bit rate : 192 kb/s
Channel(s) : 2 channels
Channel layout : L R
Sampling rate : 48.0 kHz
Frame rate : 46.875 FPS (1024 SPF)
Compression mode : Lossy
Stream size : 193 MiB (2%)
Title : [email protected]
Language : Telugu
Default : Yes
Forced : No

Text
ID : 3
Format : UTF-8
Codec ID : S_TEXT/UTF8
Codec ID/Info : UTF-8 Plain Text
Duration : 2 h 17 min
Bit rate : 60 b/s
Count of elements : 1912
Stream size : 60.7 KiB (0%)
Title : [email protected]
Language : English
Default : Yes
Forced : No

Krishna Gaadi Veera Prema Gaadha Screenshots:



























Download 1080p – 8.02GB

Download 720p – 2.44GB

For All Telugu Movies Click Here

Facebook Comments Box

Duration: 148 min

Quality: WEB-DL

Release:

IMDb: 7.5

Krishna Gaadi Veera Prema Gaadha 2016 Telugu