0
1 Star2 Stars3 Stars4 Stars5 Stars (No Ratings Yet)
Loading...

Maestro 2021 Telugu

Maestro

Andhadhun Telugu Remake Crime, Drama, Music, Mystery, Thriller | 135min | September 17, 2021 (India)
Director: Merlapaka GandhiWriter: Sheik Dawood G., Merlapaka GandhiStars: Tamannaah Bhatia, Jisshu Sengupta, NithiinSummary: A piano player pretending to be visually-impaired, unwittingly becomes entangled in a number of problems as he witnesses the murder of a former film actor.

Photos


See all photos >>

Maestro

Media-Info Maestro

Maestro.2021.1080p.DSNP.WEB-DL.DD+5.1.x264-Telly.mkv
Format : Matroska
Format version : Version 4
File size : 3.30 GiB
Duration : 2 h 15 min
Overall bit rate : 3 491 kb/s
Movie name : Telly
Encoded date : UTC 2021-09-16 18:33:56
Writing application : mkvmerge v61.0.0 (‘So’) 64-bit
Writing library : libebml v1.4.2 + libmatroska v1.6.4

Video
ID : 1
Format : AVC
Format/Info : Advanced Video Codec
Format profile : [email protected]
Format settings : CABAC / 4 Ref Frames
Format settings, CABAC : Yes
Format settings, Reference frames : 4 frames
Format settings, GOP : M=4, N=48
Codec ID : V_MPEG4/ISO/AVC
Duration : 2 h 15 min
Bit rate : 3 300 kb/s
Width : 1 920 pixels
Height : 1 080 pixels
Display aspect ratio : 16:9
Frame rate mode : Constant
Frame rate : 24.000 FPS
Color space : YUV
Chroma subsampling : 4:2:0
Bit depth : 8 bits
Scan type : Progressive
Bits/(Pixel*Frame) : 0.066
Stream size : 3.11 GiB (94%)
Writing library : x264 core 155 r2917+2 f192430
Encoding settings : cabac=1 / ref=4 / deblock=1:-1:-1 / analyse=0x3:0x113 / me=hex / subme=8 / psy=1 / psy_rd=1.00:0.15 / mixed_ref=1 / me_range=16 / chroma_me=1 / trellis=2 / 8x8dct=1 / cqm=0 / deadzone=21,11 / fast_pskip=1 / chroma_qp_offset=-3 / threads=14 / lookahead_threads=2 / sliced_threads=0 / nr=0 / decimate=1 / interlaced=0 / bluray_compat=0 / constrained_intra=0 / bframes=3 / b_pyramid=2 / b_adapt=2 / b_bias=0 / direct=3 / weightb=1 / open_gop=0 / weightp=2 / keyint=48 / keyint_min=25 / scenecut=0 / intra_refresh=0 / rc_lookahead=48 / rc=2pass / mbtree=1 / bitrate=3300 / ratetol=1.0 / qcomp=0.60 / qpmin=0 / qpmax=69 / qpstep=4 / cplxblur=20.0 / qblur=0.5 / vbv_maxrate=4950 / vbv_bufsize=6600 / nal_hrd=none / filler=0 / ip_ratio=1.40 / aq=3:1.00
Default : Yes
Forced : No
Color range : Limited
Color primaries : BT.709
Matrix coefficients : BT.709

Audio
ID : 2
Format : E-AC-3
Format/Info : Enhanced AC-3
Commercial name : Dolby Digital Plus
Codec ID : A_EAC3
Duration : 2 h 15 min
Bit rate mode : Constant
Bit rate : 192 kb/s
Channel(s) : 6 channels
Channel layout : L R C LFE Ls Rs
Sampling rate : 48.0 kHz
Frame rate : 31.250 FPS (1536 SPF)
Compression mode : Lossy
Stream size : 186 MiB (6%)
Language : Telugu
Service kind : Complete Main
Default : Yes
Forced : No

Text #1
ID : 3
Format : UTF-8
Codec ID : S_TEXT/UTF8
Codec ID/Info : UTF-8 Plain Text
Duration : 2 h 14 min
Bit rate : 62 b/s
Count of elements : 1850
Stream size : 61.2 KiB (0%)
Language : English
Default : No
Forced : No

Text #2
ID : 4
Format : UTF-8
Codec ID : S_TEXT/UTF8
Codec ID/Info : UTF-8 Plain Text
Duration : 2 h 14 min
Bit rate : 158 b/s
Count of elements : 1726
Stream size : 156 KiB (0%)
Language : Telugu
Default : No
Forced : No

Maestro Screenshots:

Maestro

Maestro

Maestro

Maestro

Download 1080p – 3.3GB

Download 1080p HEVC – 2.53GB

Download 2160p HDR HEVC – 21.58GB

For All Telugu Movies Click Here

Facebook Comments Box

Duration: N/A

Quality: WEB-DL

Release:

IMDb: N/A