0
1 Star2 Stars3 Stars4 Stars5 Stars (No Ratings Yet)
Loading...

Manikarnika: The Queen of Jhansi 2019 AMZN WEB-DL

Manikarnika

Manikarnika: Jhansi malikasi Action, Biography, Drama, History | 148min | January 25, 2019 (United States) 6.4
Director: Radha Krishna Jagarlamudi, Kangana RanautWriter: Vijayendra Prasad, Prasoon JoshiStars: Kangana Ranaut, Danny Denzongpa, Rimi SenSummary: When Dixt, a minister in Jhansi princely state, sees Varanasi-born Manikarnika, he proposes that she marry Gangadar Rao, prince of Jhansi. Sadashiv Rao plots with British officers to conquer Jhansi as he is promised a stake in it after conquering Jhansi. After the birth of Lakshmi and Gangadar Rao's son Sadashiv Rao sees his place in fear and poisons the holy water during the child's naming ceremony; he passes away and leaves Gangadar Rao on his deathbed. Gangadar Rao decides to adopt a son and Sadashiv Rao feels guilty of not adopting his son instead a toddler who comes running to Lakshmi Bai after Gangadar Rao's death. The East India Company decides to conquer Jhansi as it has no male ruler, but Lakshmi Bai decides to take the throne herself and fight for Jhansi. —[email protected]

Photos


See all photos >>

Manikarnika

Media-Info Manikarnika

Manikarnika- The Queen of Jhansi 2019 Hindi 1080p AMZN WEB-DL DDP5.1 H264 MSub – WiKi-PiKi.mkv
Format : Matroska
Format version : Version 4
File size : 5.58 GiB
Duration : 2 h 20 min
Overall bit rate : 5 678 kb/s
Movie name : GoldminesHD.Club
Encoded date : UTC 2021-09-14 09:31:00
Writing application : mkvmerge v56.1.0 (‘My Friend’) 64-bit
Writing library : libebml v1.4.2 + libmatroska v1.6.4
Attachments : WiKi-PiKi.jpg

Video
ID : 1
Format : AVC
Format/Info : Advanced Video Codec
Format profile : [email protected]
Format settings : CABAC / 4 Ref Frames
Format settings, CABAC : Yes
Format settings, Reference frames : 4 frames
Codec ID : V_MPEG4/ISO/AVC
Duration : 2 h 20 min
Bit rate : 5 034 kb/s
Width : 1 920 pixels
Height : 816 pixels
Display aspect ratio : 2.35:1
Frame rate mode : Constant
Frame rate : 25.000 FPS
Color space : YUV
Chroma subsampling : 4:2:0
Bit depth : 8 bits
Scan type : Progressive
Bits/(Pixel*Frame) : 0.129
Stream size : 4.94 GiB (89%)
Title : [email protected]
Default : Yes
Forced : No
Color range : Limited
Color primaries : BT.709
Transfer characteristics : BT.709
Matrix coefficients : BT.709

Audio
ID : 2
Format : E-AC-3
Format/Info : Enhanced AC-3
Commercial name : Dolby Digital Plus
Codec ID : A_EAC3
Duration : 2 h 20 min
Bit rate mode : Constant
Bit rate : 640 kb/s
Channel(s) : 6 channels
Channel layout : L R C LFE Ls Rs
Sampling rate : 48.0 kHz
Frame rate : 31.250 FPS (1536 SPF)
Compression mode : Lossy
Stream size : 644 MiB (11%)
Title : [email protected]
Language : Hindi
Service kind : Complete Main
Default : Yes
Forced : No

Text #1
ID : 3
Format : UTF-8
Codec ID : S_TEXT/UTF8
Codec ID/Info : UTF-8 Plain Text
Duration : 2 h 11 min
Bit rate : 42 b/s
Count of elements : 1250
Stream size : 40.9 KiB (0%)
Title : [email protected]
Language : English
Default : Yes
Forced : No

Text #2
ID : 4
Format : UTF-8
Codec ID : S_TEXT/UTF8
Codec ID/Info : UTF-8 Plain Text
Duration : 2 h 18 min
Bit rate : 62 b/s
Count of elements : 1482
Stream size : 63.3 KiB (0%)
Title : [email protected]
Language : Arabic
Default : No
Forced : No

Text #3
ID : 5
Format : UTF-8
Codec ID : S_TEXT/UTF8
Codec ID/Info : UTF-8 Plain Text
Duration : 2 h 11 min
Bit rate : 43 b/s
Count of elements : 1434
Stream size : 42.0 KiB (0%)
Title : [email protected]
Language : Danish
Default : No
Forced : No

Text #4
ID : 6
Format : UTF-8
Codec ID : S_TEXT/UTF8
Codec ID/Info : UTF-8 Plain Text
Duration : 2 h 11 min
Bit rate : 47 b/s
Count of elements : 1250
Stream size : 45.8 KiB (0%)
Title : [email protected]
Language : German
Default : No
Forced : No

Text #5
ID : 7
Format : UTF-8
Codec ID : S_TEXT/UTF8
Codec ID/Info : UTF-8 Plain Text
Duration : 2 h 11 min
Bit rate : 45 b/s
Count of elements : 1250
Stream size : 43.7 KiB (0%)
Title : [email protected]
Language : Spanish
Default : No
Forced : No

Text #6
ID : 8
Format : UTF-8
Codec ID : S_TEXT/UTF8
Codec ID/Info : UTF-8 Plain Text
Duration : 2 h 11 min
Bit rate : 41 b/s
Count of elements : 1307
Stream size : 39.7 KiB (0%)
Title : [email protected]
Language : Finnish
Default : No
Forced : No

Text #7
ID : 9
Format : UTF-8
Codec ID : S_TEXT/UTF8
Codec ID/Info : UTF-8 Plain Text
Duration : 2 h 11 min
Bit rate : 46 b/s
Count of elements : 1434
Stream size : 44.9 KiB (0%)
Title : [email protected]
Language : French
Default : No
Forced : No

Text #8
ID : 10
Format : UTF-8
Codec ID : S_TEXT/UTF8
Codec ID/Info : UTF-8 Plain Text
Duration : 2 h 14 min
Bit rate : 117 b/s
Count of elements : 1576
Stream size : 116 KiB (0%)
Title : WiKi-PiKi[email protected]
Language : Hindi
Default : No
Forced : No

Text #9
ID : 11
Format : UTF-8
Codec ID : S_TEXT/UTF8
Codec ID/Info : UTF-8 Plain Text
Duration : 2 h 14 min
Bit rate : 91 b/s
Count of elements : 1213
Stream size : 90.0 KiB (0%)
Title : [email protected]
Language : Hindi
Default : No
Forced : No

Text #10
ID : 12
Format : UTF-8
Codec ID : S_TEXT/UTF8
Codec ID/Info : UTF-8 Plain Text
Duration : 2 h 11 min
Bit rate : 43 b/s
Count of elements : 1250
Stream size : 42.2 KiB (0%)
Title : [email protected]
Language : Indonesian
Default : No
Forced : No

Text #11
ID : 13
Format : UTF-8
Codec ID : S_TEXT/UTF8
Codec ID/Info : UTF-8 Plain Text
Duration : 2 h 20 min
Bit rate : 39 b/s
Count of elements : 1297
Stream size : 40.9 KiB (0%)
Title : [email protected]
Language : Indonesian
Default : No
Forced : No

Text #12
ID : 14
Format : UTF-8
Codec ID : S_TEXT/UTF8
Codec ID/Info : UTF-8 Plain Text
Duration : 2 h 11 min
Bit rate : 43 b/s
Count of elements : 1434
Stream size : 42.3 KiB (0%)
Title : [email protected]
Language : Norwegian Bokmal
Default : No
Forced : No

Text #13
ID : 15
Format : UTF-8
Codec ID : S_TEXT/UTF8
Codec ID/Info : UTF-8 Plain Text
Duration : 2 h 11 min
Bit rate : 43 b/s
Count of elements : 1250
Stream size : 42.0 KiB (0%)
Title : [email protected]
Language : Dutch
Default : No
Forced : No

Text #14
ID : 16
Format : UTF-8
Codec ID : S_TEXT/UTF8
Codec ID/Info : UTF-8 Plain Text
Duration : 2 h 11 min
Bit rate : 43 b/s
Count of elements : 1269
Stream size : 41.9 KiB (0%)
Title : [email protected]
Language : Dutch
Default : No
Forced : No

Text #15
ID : 17
Format : UTF-8
Codec ID : S_TEXT/UTF8
Codec ID/Info : UTF-8 Plain Text
Duration : 2 h 12 min
Bit rate : 68 b/s
Count of elements : 1299
Stream size : 66.7 KiB (0%)
Title : [email protected]
Language : Russian
Default : No
Forced : No

Text #16
ID : 18
Format : UTF-8
Codec ID : S_TEXT/UTF8
Codec ID/Info : UTF-8 Plain Text
Duration : 2 h 11 min
Bit rate : 41 b/s
Count of elements : 1340
Stream size : 40.0 KiB (0%)
Title : [email protected]
Language : Swedish
Default : No
Forced : No

Text #17
ID : 19
Format : UTF-8
Codec ID : S_TEXT/UTF8
Codec ID/Info : UTF-8 Plain Text
Duration : 2 h 11 min
Bit rate : 113 b/s
Count of elements : 1251
Stream size : 109 KiB (0%)
Title : [email protected]
Language : Thai
Default : No
Forced : No

Text #18
ID : 20
Format : UTF-8
Codec ID : S_TEXT/UTF8
Codec ID/Info : UTF-8 Plain Text
Duration : 2 h 11 min
Bit rate : 110 b/s
Count of elements : 1266
Stream size : 106 KiB (0%)
Title : [email protected]
Language : Thai
Default : No
Forced : No

Text #19
ID : 21
Format : UTF-8
Codec ID : S_TEXT/UTF8
Codec ID/Info : UTF-8 Plain Text
Duration : 2 h 11 min
Bit rate : 39 b/s
Count of elements : 1293
Stream size : 38.4 KiB (0%)
Title : [email protected]
Language : Chinese
Default : No
Forced : No

Text #20
ID : 22
Format : UTF-8
Codec ID : S_TEXT/UTF8
Codec ID/Info : UTF-8 Plain Text
Duration : 2 h 11 min
Bit rate : 38 b/s
Count of elements : 1250
Stream size : 36.8 KiB (0%)
Title : [email protected]
Language : Chinese
Default : No
Forced : No

Manikarnika Screenshots:




















Download 1080p – 5.58GB

For All Hindi Movies Click Here

Facebook Comments Box

Duration: 148 min

Quality: WEB-DL

Release:

IMDb: 6.4

Manikarnika: The Queen of Jhansi 2019 AMZN WEB-DL
Manikarnika: The Queen of Jhansi 2019 AMZN WEB-DL