0
1 Star2 Stars3 Stars4 Stars5 Stars (No Ratings Yet)
Loading...

Mehndi 1998 AMZN WEB-DL

Mehndi

Drama | 153min | November 13, 1998 (India) 3.4
Director: Hamid Ali KhanWriter: Iqbal DurraniStars: Faraaz Khan, Rani Mukerji, Ushma RathodSummary: Gone are the days (and the movies) when the Indian daughter-in-law stood by silently and got abused and slapped around by her mother-in-law, sisters-in-law, et al. Here, the daughter-in-law has not only her cruel and intimidating mom-in-law, but also her equally cruel, sister-in-law by the hair, and some may say, well under her thumb. A glaring and perhaps a light-hearted look at the evil of dowry, and lack of which still does result in cruelties being inflicted even on well educated and cultured women in modern yet secular and tradition-bond India. —rAjOo ([email protected])

Photos


See all photos >>

Mehndi 1998:Multi Audio Movies; goldmineshd.club;

Media-Info Mehndi

Mehndi 1998 Hindi 1080p AMZN WEB-DL DDP2.0 H264 ESub – WiKi-PiKi.mkv
Format : Matroska
Format version : Version 4
File size : 6.10 GiB
Duration : 2 h 32 min
Overall bit rate : 5 710 kb/s
Movie name : GoldminesHD.Club
Encoded date : UTC 2021-08-27 06:39:14
Writing application : mkvmerge v56.1.0 (‘My Friend’) 64-bit
Writing library : libebml v1.4.2 + libmatroska v1.6.4

Video
ID : 1
Format : AVC
Format/Info : Advanced Video Codec
Format profile : [email protected]
Format settings : CABAC / 4 Ref Frames
Format settings, CABAC : Yes
Format settings, Reference frames : 4 frames
Codec ID : V_MPEG4/ISO/AVC
Duration : 2 h 32 min
Bit rate : 5 484 kb/s
Width : 1 920 pixels
Height : 872 pixels
Display aspect ratio : 2.2:1
Original display aspect ratio : 2.2:1
Frame rate mode : Constant
Frame rate : 25.000 FPS
Color space : YUV
Chroma subsampling : 4:2:0
Bit depth : 8 bits
Scan type : Progressive
Bits/(Pixel*Frame) : 0.131
Stream size : 5.86 GiB (96%)
Title : [email protected]
Default : Yes
Forced : No
Color range : Limited
Color primaries : BT.709
Transfer characteristics : BT.709
Matrix coefficients : BT.709

Audio
ID : 2
Format : E-AC-3
Format/Info : Enhanced AC-3
Commercial name : Dolby Digital Plus
Codec ID : A_EAC3
Duration : 2 h 32 min
Bit rate mode : Constant
Bit rate : 224 kb/s
Channel(s) : 2 channels
Channel layout : L R
Sampling rate : 48.0 kHz
Frame rate : 31.250 FPS (1536 SPF)
Compression mode : Lossy
Delay relative to video : -80 ms
Stream size : 245 MiB (4%)
Title : [email protected]
Language : Hindi
Service kind : Complete Main
Default : Yes
Forced : No

Mehndi 1998:Multi Audio Movies; goldmineshd.club;

Text
ID : 3
Format : UTF-8
Codec ID : S_TEXT/UTF8
Codec ID/Info : UTF-8 Plain Text
Duration : 2 h 31 min
Bit rate : 64 b/s
Count of elements : 1885
Stream size : 71.6 KiB (0%)
Title : [email protected]
Language : English
Default : Yes
Forced : No

Mehndi Screenshots:




























Download 1080p – 6.10GB

For More Hindi Movies

Mehndi 1998:Multi Audio Movies; goldmineshd.club;

Facebook Comments Box

Duration:

Quality: WEB-DL

Release: