0
1 Star2 Stars3 Stars4 Stars5 Stars (No Ratings Yet)
Loading...

Mohabbatein 2000 AMZN WEB-DL

Mohabbatein

Love Stories Musical, Drama, Romance | 216min | October 27, 2000 (India) 7.1
Director: Aditya ChopraWriter: Aditya ChopraStars: Amitabh Bachchan, Shah Rukh Khan, Uday ChopraSummary: National Award winner, Yash Chopra and Aditya Chopra's MOHABBATEIN is a film that portrays the battle between love and fear - A battle between two stubborn men and their opposing beliefs. Raj Aryan (Shahrukh Khan), who stands for love, he would go to any lengths for it. Narayan Shankar (Amitabh Bachchan) - voted the Millennium star in the BBC polls) a strict disciplinarian as the head of India's most prestigious educational institute who stands for fear, he believes that love leads to pain and weakness. It is also the story of 3 young men and women who have to learn to follow their hearts against all the odds and the outcome of their love stories that will decide what will finally triumph. .. love or fear. —Official Source

Photos


See all photos >>

Mohabbatein

Media-Info Mohabbatein

Mohabbatein 2000 Hindi 1080p AMZN WEB-DL DDP5.1 H264 MSub – WiKi-PiKi.mkv
Format : Matroska
Format version : Version 4
File size : 22.8 GiB
Duration : 3 h 35 min
Overall bit rate : 15.2 Mb/s
Movie name : GoldminesHD.Club
Encoded date : UTC 2021-09-22 09:09:25
Writing application : mkvmerge v56.1.0 (‘My Friend’) 64-bit
Writing library : libebml v1.4.2 + libmatroska v1.6.4

Video
ID : 1
Format : AVC
Format/Info : Advanced Video Codec
Format profile : [email protected]
Format settings : CABAC / 4 Ref Frames
Format settings, CABAC : Yes
Format settings, Reference frames : 4 frames
Codec ID : V_MPEG4/ISO/AVC
Duration : 3 h 35 min
Bit rate : 14.5 Mb/s
Width : 1 920 pixels
Height : 816 pixels
Display aspect ratio : 2.35:1
Frame rate mode : Constant
Frame rate : 23.976 (24000/1001) FPS
Color space : YUV
Chroma subsampling : 4:2:0
Bit depth : 8 bits
Scan type : Progressive
Bits/(Pixel*Frame) : 0.387
Stream size : 21.9 GiB (96%)
Title : [email protected]
Default : Yes
Forced : No
Color range : Limited
Color primaries : BT.709
Transfer characteristics : BT.709
Matrix coefficients : BT.709

Audio
ID : 2
Format : E-AC-3
Format/Info : Enhanced AC-3
Commercial name : Dolby Digital Plus
Codec ID : A_EAC3
Duration : 3 h 35 min
Bit rate mode : Constant
Bit rate : 640 kb/s
Channel(s) : 6 channels
Channel layout : L R C LFE Ls Rs
Sampling rate : 48.0 kHz
Frame rate : 31.250 FPS (1536 SPF)
Compression mode : Lossy
Delay relative to video : -83 ms
Stream size : 986 MiB (4%)
Title : [email protected]
Language : Hindi
Service kind : Complete Main
Default : Yes
Forced : No

Text #1
ID : 3
Format : UTF-8
Codec ID : S_TEXT/UTF8
Codec ID/Info : UTF-8 Plain Text
Duration : 3 h 33 min
Bit rate : 46 b/s
Count of elements : 1914
Stream size : 73.0 KiB (0%)
Title : [email protected]
Language : English
Default : Yes
Forced : No

Text #2
ID : 4
Format : UTF-8
Codec ID : S_TEXT/UTF8
Codec ID/Info : UTF-8 Plain Text
Duration : 3 h 33 min
Bit rate : 66 b/s
Count of elements : 1921
Stream size : 105 KiB (0%)
Title : [email protected]
Language : Arabic
Default : No
Forced : No

Text #3
ID : 5
Format : UTF-8
Codec ID : S_TEXT/UTF8
Codec ID/Info : UTF-8 Plain Text
Duration : 3 h 32 min
Bit rate : 47 b/s
Count of elements : 2105
Stream size : 73.7 KiB (0%)
Title : [email protected]
Language : Indonesian
Default : No
Forced : No

Text #4
ID : 6
Format : UTF-8
Codec ID : S_TEXT/UTF8
Codec ID/Info : UTF-8 Plain Text
Duration : 3 h 32 min
Bit rate : 121 b/s
Count of elements : 2108
Stream size : 189 KiB (0%)
Title : [email protected]
Language : Tamil
Default : No
Forced : No

Text #5
ID : 7
Format : UTF-8
Codec ID : S_TEXT/UTF8
Codec ID/Info : UTF-8 Plain Text
Duration : 3 h 32 min
Bit rate : 135 b/s
Count of elements : 2108
Stream size : 211 KiB (0%)
Title : [email protected]
Language : Telugu
Default : No
Forced : No

Text #6
ID : 8
Format : UTF-8
Codec ID : S_TEXT/UTF8
Codec ID/Info : UTF-8 Plain Text
Duration : 3 h 32 min
Bit rate : 108 b/s
Count of elements : 2117
Stream size : 168 KiB (0%)
Title : [email protected]
Language : Thai
Default : No
Forced : No

Text #7
ID : 9
Format : UTF-8
Codec ID : S_TEXT/UTF8
Codec ID/Info : UTF-8 Plain Text
Duration : 3 h 32 min
Bit rate : 41 b/s
Count of elements : 1908
Stream size : 64.9 KiB (0%)
Title : [email protected]
Language : Chinese
Default : No
Forced : No

Mohabbatein Screenshots:






































Download 1080p – 22.84GB

For All Hindi Movies Click Here

Facebook Comments Box

Duration: 216 min

Quality: WEB-DL

Release:

IMDb: 7.1

Mohabbatein 2000 AMZN WEB-DL
Mohabbatein 2000 AMZN WEB-DL
Mohabbatein 2000 AMZN WEB-DL