0
1 Star2 Stars3 Stars4 Stars5 Stars (No Ratings Yet)
Loading...

Mosagallu(Anu and Arjun) 2021 Tamil AMZN WEB-DL

Mosagallu

Anu and Arjun (2021) Drama | 85min | March 19, 2021 (India) 5.6
Director: Jeffrey Gee ChinWriter: Diamond Ratna Babu, Aparna Nadig, NivasStars: Vishnu Manchu, Kajal Aggarwal, Sunil ShettySummary: The story of the world's biggest I.T. scam.

Photos


See all photos >>

Mosagallu 2021:Tamil Movies; goldmineshd.club;

Media-Info Mosagallu

Mosagallu(Anu and Arjun) Tamil 2021 1080p AMZN WEB-DL DDP5.1 H264 ESub – WiKi-PiKi.mkv
Format : Matroska
Format version : Version 4
File size : 8.37 GiB
Duration : 2 h 12 min
Overall bit rate : 9 015 kb/s
Movie name : GoldminesHD.Club
Encoded date : UTC 2021-08-22 18:46:03
Writing application : mkvmerge v56.1.0 (‘My Friend’) 64-bit
Writing library : libebml v1.4.2 + libmatroska v1.6.4

Video
ID : 1
Format : AVC
Format/Info : Advanced Video Codec
Format profile : [email protected]
Format settings : CABAC / 4 Ref Frames
Format settings, CABAC : Yes
Format settings, Reference frames : 4 frames
Codec ID : V_MPEG4/ISO/AVC
Duration : 2 h 12 min
Bit rate : 8 373 kb/s
Width : 1 920 pixels
Height : 800 pixels
Display aspect ratio : 2.40:1
Frame rate mode : Constant
Frame rate : 24.000 FPS
Color space : YUV
Chroma subsampling : 4:2:0
Bit depth : 8 bits
Scan type : Progressive
Bits/(Pixel*Frame) : 0.227
Stream size : 7.78 GiB (93%)
Title : [email protected]
Default : Yes
Forced : No
Color range : Limited
Color primaries : BT.709
Transfer characteristics : BT.709
Matrix coefficients : BT.709

Audio
ID : 2
Format : E-AC-3
Format/Info : Enhanced AC-3
Commercial name : Dolby Digital Plus
Codec ID : A_EAC3
Duration : 2 h 12 min
Bit rate mode : Constant
Bit rate : 640 kb/s
Channel(s) : 6 channels
Channel layout : L R C LFE Ls Rs
Sampling rate : 48.0 kHz
Frame rate : 31.250 FPS (1536 SPF)
Compression mode : Lossy
Stream size : 609 MiB (7%)
Title : [email protected]
Language : Tamil
Service kind : Complete Main
Default : Yes
Forced : No

Text
ID : 3
Format : UTF-8
Codec ID : S_TEXT/UTF8
Codec ID/Info : UTF-8 Plain Text
Duration : 2 h 10 min
Bit rate : 68 b/s
Count of elements : 2161
Stream size : 65.2 KiB (0%)
Title : [email protected]
Language : English
Default : Yes
Forced : No

Mosagallu Screenshots:






























Download 1080p – 8.37GB

For All Tamil Movies Click Here

Facebook Comments Box

Duration: 85 min

Quality: WEB-DL

Release:

IMDb: 5.6

Mosagallu(Anu and Arjun) 2021 Tamil AMZN WEB-DL
Mosagallu(Anu and Arjun) 2021 Tamil AMZN WEB-DL
Mosagallu(Anu and Arjun) 2021 Tamil AMZN WEB-DL
Mosagallu(Anu and Arjun) 2021 Tamil AMZN WEB-DL
Mosagallu(Anu and Arjun) 2021 Tamil AMZN WEB-DL
Mosagallu(Anu and Arjun) 2021 Tamil AMZN WEB-DL
Mosagallu(Anu and Arjun) 2021 Tamil AMZN WEB-DL
Mosagallu(Anu and Arjun) 2021 Tamil AMZN WEB-DL