0
1 Star2 Stars3 Stars4 Stars5 Stars (No Ratings Yet)
Loading...

Mumbai Diaries 26/11 2021 S1 AMZN WEB-DL

Mumbai Diaries 26/11

Drama | September 9, 2021 (United States)
Stars: Mohit Raina, Konkona Sen Sharma, Shreya DhanwantharySummary: Mumbai Diaries is a medical thriller set in the Emergency Room of a hospital. The series explores the challenges faced by the medical staff at the hospital as well as other first responders across the city of Mumbai in dealing with a crisis of immense magnitude. In this battle to save lives and heal others, the ones doing the fixing are the most broken. ?Mumbai Diaires 26/11

Photos


See all photos >>

Mumbai Diaries 26/11

Media-Info Mumbai Diaries 26/11

Mumbai.Diaries.S01E01.Diagnosis.1080p.AMZN.WEB-DL.DDP5.1.HEVC-Telly.mkv
Format : Matroska
Format version : Version 4
File size : 1.69 GiB
Duration : 49 min 58 s
Overall bit rate : 4 832 kb/s
Movie name : Telly
Encoded date : UTC 2021-09-08 15:18:03
Writing application : mkvmerge v59.0.0 (‘Shining Star’) 64-bit
Writing library : libebml v1.4.2 + libmatroska v1.6.4

Video
ID : 1
Format : HEVC
Format/Info : High Efficiency Video Coding
Format profile : [email protected]@Main
Codec ID : V_MPEGH/ISO/HEVC
Duration : 49 min 58 s
Bit rate : 2 909 kb/s
Width : 1 920 pixels
Height : 1 080 pixels
Display aspect ratio : 16:9
Frame rate mode : Constant
Frame rate : 24.000 FPS
Standard : NTSC
Color space : YUV
Chroma subsampling : 4:2:0
Bit depth : 8 bits
Bits/(Pixel*Frame) : 0.058
Stream size : 1.02 GiB (60%)
Default : Yes
Forced : No
Color range : Limited
Color primaries : BT.709
Transfer characteristics : BT.709
Matrix coefficients : BT.709

Audio #1
ID : 2
Format : E-AC-3
Format/Info : Enhanced AC-3
Commercial name : Dolby Digital Plus
Codec ID : A_EAC3
Duration : 49 min 58 s
Bit rate mode : Constant
Bit rate : 640 kb/s
Channel(s) : 6 channels
Channel layout : L R C LFE Ls Rs
Sampling rate : 48.0 kHz
Frame rate : 31.250 FPS (1536 SPF)
Compression mode : Lossy
Stream size : 229 MiB (13%)
Title : Hindi
Language : Hindi
Service kind : Complete Main
Default : No
Forced : No

Audio #2
ID : 3
Format : E-AC-3
Format/Info : Enhanced AC-3
Commercial name : Dolby Digital Plus
Codec ID : A_EAC3
Duration : 49 min 58 s
Bit rate mode : Constant
Bit rate : 640 kb/s
Channel(s) : 6 channels
Channel layout : L R C LFE Ls Rs
Sampling rate : 48.0 kHz
Frame rate : 31.250 FPS (1536 SPF)
Compression mode : Lossy
Stream size : 229 MiB (13%)
Title : Tamil
Language : Tamil
Service kind : Complete Main
Default : No
Forced : No

Audio #3
ID : 4
Format : E-AC-3
Format/Info : Enhanced AC-3
Commercial name : Dolby Digital Plus
Codec ID : A_EAC3
Duration : 49 min 58 s
Bit rate mode : Constant
Bit rate : 640 kb/s
Channel(s) : 6 channels
Channel layout : L R C LFE Ls Rs
Sampling rate : 48.0 kHz
Frame rate : 31.250 FPS (1536 SPF)
Compression mode : Lossy
Stream size : 229 MiB (13%)
Title : Telugu
Language : Telugu
Service kind : Complete Main
Default : No
Forced : No

Text #1
ID : 5
Format : UTF-8
Codec ID : S_TEXT/UTF8
Codec ID/Info : UTF-8 Plain Text
Duration : 49 min 45 s
Bit rate : 123 b/s
Count of elements : 750
Stream size : 45.1 KiB (0%)
Title : Arabic
Language : Arabic
Default : No
Forced : No

Text #2
ID : 6
Format : UTF-8
Codec ID : S_TEXT/UTF8
Codec ID/Info : UTF-8 Plain Text
Duration : 47 min 32 s
Bit rate : 79 b/s
Count of elements : 924
Stream size : 27.7 KiB (0%)
Title : English
Language : English
Default : No
Forced : No

Text #3
ID : 7
Format : UTF-8
Codec ID : S_TEXT/UTF8
Codec ID/Info : UTF-8 Plain Text
Duration : 47 min 34 s
Bit rate : 243 b/s
Count of elements : 963
Stream size : 84.9 KiB (0%)
Title : Hindi [SDH]
Language : Hindi
Default : No
Forced : No

Text #4
ID : 8
Format : UTF-8
Codec ID : S_TEXT/UTF8
Codec ID/Info : UTF-8 Plain Text
Duration : 49 min 45 s
Bit rate : 176 b/s
Count of elements : 750
Stream size : 64.5 KiB (0%)
Title : Tamil
Language : Tamil
Default : No
Forced : No

Text #5
ID : 9
Format : UTF-8
Codec ID : S_TEXT/UTF8
Codec ID/Info : UTF-8 Plain Text
Duration : 49 min 45 s
Bit rate : 177 b/s
Count of elements : 750
Stream size : 64.8 KiB (0%)
Title : Telugu
Language : Telugu
Default : No
Forced : No

Text #6
ID : 10
Format : UTF-8
Codec ID : S_TEXT/UTF8
Codec ID/Info : UTF-8 Plain Text
Duration : 49 min 45 s
Bit rate : 71 b/s
Count of elements : 750
Stream size : 26.2 KiB (0%)
Title : Chinese (Traditional)
Language : Chinese
Default : No
Forced : No

Mumbai Diaries 26/11 Screenshots:

Mumbai Diaries 26/11

Mumbai Diaries 26/11

Mumbai Diaries 26/11

Mumbai Diaries 26/11

Download 1080p HEVC Single Episode:

Download S1 EP – 01 1080p HEVC – 1.69GB      

Download S1 EP – 02 1080p HEVC – 1.27GB

Download S1 EP – 03 1080p HEVC – 1.23GB

Download S1 EP – 04 1080p HEVC – 1.18GB

Download S1 EP – 05 1080p HEVC – 1.33GB

Download S1 EP – 06 1080p HEVC – 1.43GB

Download S1 EP – 07 1080p HEVC – 1.36GB

Download S1 EP – 08 1080p HEVC – 1.12GB

Download S1 Complete Series ZIP File:

Download S1 Complete Series 1080p – 23.81GB

Download S1 Complete Series 1080p HEVC – 10.6GB

Download S1 Complete Series 720p – 12.24GB

Download S1 Complete Series 720p HEVC – 6.79GB

Download S1 Complete Series 480p – 5.07GB

For All Webseries Click Here

Facebook Comments Box