0
1 Star2 Stars3 Stars4 Stars5 Stars (No Ratings Yet)
Loading...

NGK 2019 AMZN WEB-DL

NGK

In NGK An educated do-gooder is forced to enter politics in order to serve the society. But, will the old guard make way and allow him to do that?

NGK: Nandha Gopalan Kumaran Action, Drama | 148min | May 31, 2019 (United States) 6.0
Director: K. SelvaraghavanWriter: K. SelvaraghavanStars: Suriya, Sai Pallavi, Rakul Preet SinghSummary: Socially conscious and innocent farmer Kumaran, leads his life peacefully with his wife and family. When he's dragged into politics, his talent and ability earns him enmity. This emotional political thriller story tells us how he overpowers the situation and rise as a leader for greater good.

Photos


See all photos >>

NGK 2019:Tamil Movies; goldmineshd.club;

Media-Info NGK

NGK 2019 Tamil 1080p AMZN WEB-DL DDP5.1 H264 MSub – WiKi-PiKi.mkv
Format : Matroska
Format version : Version 4
File size : 5.80 GiB
Duration : 2 h 27 min
Overall bit rate : 5 628 kb/s
Movie name : GoldminesHD.Club
Encoded date : UTC 2021-08-18 07:32:06
Writing application : mkvmerge v56.1.0 (‘My Friend’) 64-bit
Writing library : libebml v1.4.2 + libmatroska v1.6.4

Video
ID : 1
Format : AVC
Format/Info : Advanced Video Codec
Format profile : [email protected]
Format settings : CABAC / 4 Ref Frames
Format settings, CABAC : Yes
Format settings, Reference frames : 4 frames
Codec ID : V_MPEG4/ISO/AVC
Duration : 2 h 27 min
Bit rate : 4 984 kb/s
Width : 1 920 pixels
Height : 816 pixels
Display aspect ratio : 2.35:1
Frame rate mode : Constant
Frame rate : 24.000 FPS
Color space : YUV
Chroma subsampling : 4:2:0
Bit depth : 8 bits
Scan type : Progressive
Bits/(Pixel*Frame) : 0.133
Stream size : 5.13 GiB (89%)
Title : [email protected]
Default : Yes
Forced : No
Color range : Limited
Color primaries : BT.709
Transfer characteristics : BT.709
Matrix coefficients : BT.709

Audio
ID : 2
Format : E-AC-3
Format/Info : Enhanced AC-3
Commercial name : Dolby Digital Plus
Codec ID : A_EAC3
Duration : 2 h 27 min
Bit rate mode : Constant
Bit rate : 640 kb/s
Channel(s) : 6 channels
Channel layout : L R C LFE Ls Rs
Sampling rate : 48.0 kHz
Frame rate : 31.250 FPS (1536 SPF)
Compression mode : Lossy
Stream size : 675 MiB (11%)
Title : [email protected]
Language : Tamil
Service kind : Complete Main
Default : Yes
Forced : No

Text #1
ID : 3
Format : UTF-8
Codec ID : S_TEXT/UTF8
Codec ID/Info : UTF-8 Plain Text
Duration : 2 h 25 min
Bit rate : 79 b/s
Count of elements : 1927
Stream size : 84.3 KiB (0%)
Title : [email protected]
Language : Arabic
Default : Yes
Forced : No

Text #2
ID : 4
Format : UTF-8
Codec ID : S_TEXT/UTF8
Codec ID/Info : UTF-8 Plain Text
Duration : 2 h 23 min
Bit rate : 58 b/s
Count of elements : 2044
Stream size : 61.1 KiB (0%)
Title : [email protected]
Language : Danish
Default : No
Forced : No

Text #3
ID : 5
Format : UTF-8
Codec ID : S_TEXT/UTF8
Codec ID/Info : UTF-8 Plain Text
Duration : 2 h 23 min
Bit rate : 60 b/s
Count of elements : 2075
Stream size : 63.0 KiB (0%)
Title : [email protected]
Language : English
Default : No
Forced : No

Text #4
ID : 6
Format : UTF-8
Codec ID : S_TEXT/UTF8
Codec ID/Info : UTF-8 Plain Text
Duration : 2 h 23 min
Bit rate : 58 b/s
Count of elements : 1997
Stream size : 61.7 KiB (0%)
Title : [email protected]
Language : English
Default : No
Forced : No

Text #5
ID : 7
Format : UTF-8
Codec ID : S_TEXT/UTF8
Codec ID/Info : UTF-8 Plain Text
Duration : 2 h 25 min
Bit rate : 137 b/s
Count of elements : 2030
Stream size : 146 KiB (0%)
Title : [email protected]
Language : Hindi
Default : No
Forced : No

Text #6
ID : 8
Format : UTF-8
Codec ID : S_TEXT/UTF8
Codec ID/Info : UTF-8 Plain Text
Duration : 2 h 23 min
Bit rate : 57 b/s
Count of elements : 1986
Stream size : 60.3 KiB (0%)
Title : [email protected]
Language : Indonesian
Default : No
Forced : No

Text #7
ID : 9
Format : UTF-8
Codec ID : S_TEXT/UTF8
Codec ID/Info : UTF-8 Plain Text
Duration : 2 h 23 min
Bit rate : 54 b/s
Count of elements : 2044
Stream size : 57.1 KiB (0%)
Title : [email protected]
Language : Norwegian Bokmal
Default : No
Forced : No

Text #8
ID : 10
Format : UTF-8
Codec ID : S_TEXT/UTF8
Codec ID/Info : UTF-8 Plain Text
Duration : 2 h 23 min
Bit rate : 54 b/s
Count of elements : 1950
Stream size : 57.2 KiB (0%)
Title : [email protected]
Language : Dutch
Default : No
Forced : No

Text #9
ID : 11
Format : UTF-8
Codec ID : S_TEXT/UTF8
Codec ID/Info : UTF-8 Plain Text
Duration : 2 h 25 min
Bit rate : 92 b/s
Count of elements : 1934
Stream size : 98.5 KiB (0%)
Title : [email protected]
Language : Russian
Default : No
Forced : No

Text #10
ID : 12
Format : UTF-8
Codec ID : S_TEXT/UTF8
Codec ID/Info : UTF-8 Plain Text
Duration : 2 h 23 min
Bit rate : 62 b/s
Count of elements : 2079
Stream size : 65.5 KiB (0%)
Title : [email protected]
Language : Swedish
Default : No
Forced : No

Text #11
ID : 13
Format : UTF-8
Codec ID : S_TEXT/UTF8
Codec ID/Info : UTF-8 Plain Text
Duration : 2 h 26 min
Bit rate : 172 b/s
Count of elements : 2479
Stream size : 184 KiB (0%)
Title : [email protected]
Language : Tamil
Default : No
Forced : No

Text #12
ID : 14
Format : UTF-8
Codec ID : S_TEXT/UTF8
Codec ID/Info : UTF-8 Plain Text
Duration : 2 h 25 min
Bit rate : 144 b/s
Count of elements : 2030
Stream size : 153 KiB (0%)
Title : [email protected]
Language : Telugu
Default : No
Forced : No

Text #13
ID : 15
Format : UTF-8
Codec ID : S_TEXT/UTF8
Codec ID/Info : UTF-8 Plain Text
Duration : 2 h 25 min
Bit rate : 139 b/s
Count of elements : 2021
Stream size : 148 KiB (0%)
Title : [email protected]
Language : Thai
Default : No
Forced : No

Text #14
ID : 16
Format : UTF-8
Codec ID : S_TEXT/UTF8
Codec ID/Info : UTF-8 Plain Text
Duration : 2 h 23 min
Bit rate : 45 b/s
Count of elements : 1996
Stream size : 47.2 KiB (0%)
Title : [email protected]
Language : Chinese
Default : No
Forced : No

Text #15
ID : 17
Format : UTF-8
Codec ID : S_TEXT/UTF8
Codec ID/Info : UTF-8 Plain Text
Duration : 2 h 24 min
Bit rate : 48 b/s
Count of elements : 2055
Stream size : 52.0 KiB (0%)
Title : [email protected]
Language : Chinese
Default : No
Forced : No

NGK Screenshots:































Download 1080p – 5.80GB

For All Tamil Movies Click Here

[Fuck You Copy Paster Who Copy Our Post and Don’t Give Us Credit]

Facebook Comments Box

Duration:

Quality: WEB-DL

Release:

NGK 2019 AMZN WEB-DL
NGK 2019 AMZN WEB-DL
NGK 2019 AMZN WEB-DL
NGK 2019 AMZN WEB-DL
NGK 2019 AMZN WEB-DL
NGK 2019 AMZN WEB-DL
NGK 2019 AMZN WEB-DL
NGK 2019 AMZN WEB-DL
NGK 2019 AMZN WEB-DL