0
1 Star2 Stars3 Stars4 Stars5 Stars (No Ratings Yet)
Loading...

Nirbaak 2015

Nirbaak

Безмолвие (2015) Fantasy, Music, Romance | 107min | May 1, 2015 (India) 6.5
Director: Srijit MukherjiWriter: Srijit MukherjiStars: Anjan Dutt, Jisshu Sengupta, Ritwick ChakrabortySummary: When love cannot speak,it speaks the loudest. This tagline of Nirbaak explains it all. But Nirbaak is a film which does not come with a fixed set of instructions for its interpretation. A tribute to Dali in its truest sense Nirbaak is surreal tale of love. A narcissist, a dog, a nymphomaniac and a woman, the one string which hold these disparate lives together is Love. Srijit Mukherjee does it best when he doesn't follow the trend. In the film Nirbaak Mukherjee plays with symbolism and various unusual metaphors. Nirbaak is a bold step from it's makers part. It is unapologetically distinctive and surreal. The film shows the city of joy as a separate character, which, very few filmmaker has tried to do before. Nirbaak is an experimental film and the makers are to be given due credit for being bold enough to do something of the sort. The minimalist directing style is commendable. Anjan dutta as the self consumed narcissist is a show stealer, Susmita Sen is poignant and subtle with her expressions, Jisshu U Sengupta and Ritwick Chakrabarty has played their respective roles convincingly. Nirbaak with its high shock value is an approximation of unsaid love.

Photos


See all photos >>

Nirbaak 2015:Bengali Movies; goldmineshd.club;

Media-Info Nirbaak

Nirbaak 2015 Bengali 1080p WEB-DL AAC2.0 H264 – WiKi-PiKi.mkv
Format : Matroska
Format version : Version 4
File size : 5.27 GiB
Duration : 1 h 49 min
Overall bit rate : 6 892 kb/s
Movie name : GoldminesHD.Club
Encoded date : UTC 2021-08-09 15:19:40
Writing application : mkvmerge v56.1.0 (‘My Friend’) 64-bit
Writing library : libebml v1.4.2 + libmatroska v1.6.4

Video
ID : 1
Format : AVC
Format/Info : Advanced Video Codec
Format profile : [email protected]
Format settings : CABAC / 3 Ref Frames
Format settings, CABAC : Yes
Format settings, Reference frames : 3 frames
Codec ID : V_MPEG4/ISO/AVC
Duration : 1 h 49 min
Bit rate : 6 634 kb/s
Width : 1 920 pixels
Height : 820 pixels
Display aspect ratio : 2.35:1
Frame rate mode : Constant
Frame rate : 30.000 FPS
Color space : YUV
Chroma subsampling : 4:2:0
Bit depth : 8 bits
Scan type : Progressive
Bits/(Pixel*Frame) : 0.140
Stream size : 5.07 GiB (96%)
Title : [email protected]
Default : Yes
Forced : No
Color range : Limited
Color primaries : BT.709
Transfer characteristics : BT.709
Matrix coefficients : BT.709

Audio
ID : 2
Format : AAC LC
Format/Info : Advanced Audio Codec Low Complexity
Codec ID : A_AAC-2
Duration : 1 h 49 min
Bit rate : 256 kb/s
Channel(s) : 2 channels
Channel layout : L R
Sampling rate : 48.0 kHz
Frame rate : 46.875 FPS (1024 SPF)
Compression mode : Lossy
Stream size : 200 MiB (4%)
Title : [email protected]
Language : Bengali
Default : Yes
Forced : No

Screenshots:























Download 1080p – 5.27GB

For All Bengali Movies Click Here

Facebook Comments Box

Duration:

Quality: WEB-DL

Release: