0
1 Star2 Stars3 Stars4 Stars5 Stars (No Ratings Yet)
Loading...

Nootokka Jillala Andagadu 2021 AMZN WEB-DL Telugu

Nootokka Jillala Andagadu 2021

Nootokka Jillala Andagadu Comedy, Drama | 125min | September 3, 2021 (India) 7.4
Director: Rachakonda VidyasagarWriter: Srinivas AvasaralaStars: Srinivas Avasarala, Krishna Bhagavan, Rocket RaghavaSummary: A young man manages his baldness by wearing a wig.

Photos


See all photos >>

Nootokka Jillala Andagadu 2021

Media-Info Nootokka Jillala Andagadu 2021

Nootokka.Jillala.Andagadu.2021.1080p.AMZN.WEB-DL.DDP5.1.H.264-Telly.mkv
Format : Matroska
Format version : Version 4
File size : 7.94 GiB
Duration : 1 h 59 min
Overall bit rate : 9 528 kb/s
Movie name : Telly
Encoded date : UTC 2021-10-02 19:40:20
Writing application : mkvmerge v59.0.0 (‘Shining Star’) 64-bit
Writing library : libebml v1.4.2 + libmatroska v1.6.4

Video
ID : 1
Format : AVC
Format/Info : Advanced Video Codec
Format profile : [email protected]
Format settings : CABAC / 4 Ref Frames
Format settings, CABAC : Yes
Format settings, ReFrames : 4 frames
Codec ID : V_MPEG4/ISO/AVC
Duration : 1 h 59 min
Bit rate mode : Constant
Bit rate : 8 886 kb/s
Nominal bit rate : 10 000 kb/s
Width : 1 920 pixels
Height : 816 pixels
Display aspect ratio : 2.35:1
Frame rate mode : Constant
Frame rate : 24.000 FPS
Color space : YUV
Chroma subsampling : 4:2:0
Bit depth : 8 bits
Scan type : Progressive
Bits/(Pixel*Frame) : 0.236
Stream size : 7.40 GiB (93%)
Default : Yes
Forced : No
Color range : Limited
Color primaries : BT.709
Transfer characteristics : BT.709
Matrix coefficients : BT.709

Audio
ID : 2
Format : E-AC-3
Format/Info : Enhanced AC-3
Commercial name : Dolby Digital Plus
Codec ID : A_EAC3
Duration : 1 h 59 min
Bit rate mode : Constant
Bit rate : 640 kb/s
Channel(s) : 6 channels
Channel layout : L R C LFE Ls Rs
Sampling rate : 48.0 kHz
Frame rate : 31.250 FPS (1536 SPF)
Compression mode : Lossy
Stream size : 546 MiB (7%)
Title : Telugu
Language : Telugu
Service kind : Complete Main
Default : No
Forced : No

Text #1
ID : 3
Format : UTF-8
Codec ID : S_TEXT/UTF8
Codec ID/Info : UTF-8 Plain Text
Duration : 1 h 52 min
Bit rate : 74 b/s
Count of elements : 1862
Stream size : 61.6 KiB (0%)
Title : English [SDH]
Language : English
Default : No
Forced : No

Text #2
ID : 4
Format : UTF-8
Codec ID : S_TEXT/UTF8
Codec ID/Info : UTF-8 Plain Text
Duration : 1 h 52 min
Bit rate : 72 b/s
Count of elements : 1784
Stream size : 59.6 KiB (0%)
Title : English
Language : English
Default : No
Forced : No

Nootokka Jillala Andagadu 2021 Screenshots:

Nootokka Jillala Andagadu 2021

Nootokka Jillala Andagadu 2021

Nootokka Jillala Andagadu 2021

Nootokka Jillala Andagadu 2021

Download 2160p HEVC – 9.6GB

Download 1080p – 7.94GB

Download 1080p HEVC – 3.45GB

Download 720p – 3.81GB

Download 720p HEVC – 1.45GB

For All Telugu Movies Click Here

Facebook Comments Box

Duration: 125 min

Quality: WEB-DL

Release:

IMDb: N/A

Nootokka Jillala Andagadu 2021 AMZN WEB-DL Telugu
Nootokka Jillala Andagadu 2021 AMZN WEB-DL Telugu
Nootokka Jillala Andagadu 2021 AMZN WEB-DL Telugu