0
1 Star2 Stars3 Stars4 Stars5 Stars (No Ratings Yet)
Loading...

NRI Haadsa 2021 Season 01

NRI Haadsa Crime | TV Mini-Series (2020– ) 6.0
Stars: Roma Arora, Roselin Sonia Gomes, Sonia GomesSummary: a crime show inspired by true stories of crimes involving Non-Resident Indians in India. The 14-part series showcases spine-chilling stories of kidnapping, mysterious murder, a faux marriage proposal and many such crimes.

Photos


See all photos >>

Complete name                            : NRI.Haadsa.S01E01.Bollywood.Dream.Part.1.1080p.VOOT.WEB-DL.AAC2.0.x264-Telly.mkv
Format                                   : Matroska
Format version                           : Version 4
File size                                : 378 MiB
Duration                                 : 20 min 52 s
Overall bit rate                         : 2 534 kb/s
Movie name                               : Telly
Encoded date                             : UTC 2021-05-10 10:02:18
Writing application                      : mkvmerge v53.0.0 ('Fool's Gold') 64-bit
Writing library                          : libebml v1.4.1 + libmatroska v1.6.2

Video
ID                                       : 1
Format                                   : AVC
Format/Info                              : Advanced Video Codec
Format profile                           : [email protected]
Format settings                          : CABAC / 5 Ref Frames
Format settings, CABAC                   : Yes
Format settings, ReFrames                : 5 frames
Codec ID                                 : V_MPEG4/ISO/AVC
Duration                                 : 20 min 52 s
Bit rate                                 : 2 468 kb/s
Width                                    : 1 920 pixels
Height                                   : 1 080 pixels
Display aspect ratio                     : 16:9
Frame rate mode                          : Constant
Frame rate                               : 25.000 FPS
Color space                              : YUV
Chroma subsampling                       : 4:2:0
Bit depth                                : 8 bits
Scan type                                : Progressive
Bits/(Pixel*Frame)                       : 0.048
Stream size                              : 369 MiB (97%)
Default                                  : Yes
Forced                                   : No

Audio
ID                                       : 2
Format                                   : AAC LC SBR
Format/Info                              : Advanced Audio Codec Low Complexity with Spectral Band Replication
Commercial name                          : HE-AAC
Format settings                          : Explicit
Codec ID                                 : A_AAC-2
Duration                                 : 20 min 52 s
Bit rate                                 : 64.0 kb/s
Channel(s)                               : 2 channels
Channel layout                           : L R
Sampling rate                            : 88.2 kHz
Frame rate                               : 43.066 FPS (2048 SPF)
Compression mode                         : Lossy
Stream size                              : 9.56 MiB (3%)
Language                                 : Hindi
Default                                  : Yes
Forced                                   : No

Text
ID                                       : 3
Format                                   : UTF-8
Codec ID                                 : S_TEXT/UTF8
Codec ID/Info                            : UTF-8 Plain Text
Duration                                 : 20 min 36 s
Bit rate                                 : 85 b/s
Count of elements                        : 480
Stream size                              : 12.9 KiB (0%)
Language                                 : English
Default                                  : No
Forced                                   : No

Download S01 1080p - 5.26 GB
Facebook Comments Box

Views: 26

Genre: TV-Series

Actors: , ,

Country:

Duration:

Quality: WEB-DL

Release: