0
1 Star2 Stars3 Stars4 Stars5 Stars (No Ratings Yet)
Loading...

Padma Nadir Majhi 1993 AMZN WEB-DL [First On Net]

Padma Nadir Majhi

Boatman of the River Padma Drama | 126min | September 11, 1993 (Canada) 8.2
Director: Goutam GhoseWriter: Manik Bandopadhaya, Goutam GhoseStars: Raisul Islam Asad, Champa, Roopa GangulySummary: Hossain is a Bengali Muslim with an idealistic vision: he wants to establish a little utopia on an island in the Padma delta. He doesn't care if the people who populate it are Hindu or Muslim. It is 1947, just before the partition of India, and the Hindu fisherman Kuber briefly accepts an offer by Hossain to ferry some of the community's cargo from the island. He would be fishing, except that all the fish he usually catches have been driven away by a big storm. In the process of getting the cargo, he gets to see what the colony is like and, even though he is fully aware of the gripes of a former colony member and the limitations of it, comes to share some of the Utopia vision. When he returns to his home and a variety of unfortunate events make it in his best interest to leave, he knows just where to go. —Swarup Basak

Photos


See all photos >>

 

Media-Info Padma Nadir Majhi

Padma Nadir Majhi 1993 Bengali 1080p AMZN WEB-DL DDP2.0 H264 ESub – WiKi-PiKi.mkv
Format : Matroska
Format version : Version 4
File size : 6.87 GiB
Duration : 2 h 11 min
Overall bit rate : 7 455 kb/s
Movie name : GoldminesHD.Club
Encoded date : UTC 2021-09-10 15:10:44
Writing application : mkvmerge v56.1.0 (‘My Friend’) 64-bit
Writing library : libebml v1.4.2 + libmatroska v1.6.4
Attachments : WiKi-PiKi.jpg

Video
ID : 1
Format : AVC
Format/Info : Advanced Video Codec
Format profile : [email protected]
Format settings : CABAC / 4 Ref Frames
Format settings, CABAC : Yes
Format settings, Reference frames : 4 frames
Codec ID : V_MPEG4/ISO/AVC
Duration : 2 h 11 min
Bit rate : 7 229 kb/s
Width : 1 920 pixels
Height : 960 pixels
Display aspect ratio : 2.000
Frame rate mode : Constant
Frame rate : 25.000 FPS
Color space : YUV
Chroma subsampling : 4:2:0
Bit depth : 8 bits
Scan type : Progressive
Bits/(Pixel*Frame) : 0.157
Stream size : 6.66 GiB (97%)
Title : [email protected]
Default : Yes
Forced : No
Color range : Limited
Color primaries : BT.709
Transfer characteristics : BT.709
Matrix coefficients : BT.709

Audio
ID : 2
Format : E-AC-3
Format/Info : Enhanced AC-3
Commercial name : Dolby Digital Plus
Codec ID : A_EAC3
Duration : 2 h 11 min
Bit rate mode : Constant
Bit rate : 224 kb/s
Channel(s) : 2 channels
Channel layout : L R
Sampling rate : 48.0 kHz
Frame rate : 31.250 FPS (1536 SPF)
Compression mode : Lossy
Stream size : 211 MiB (3%)
Title : [email protected]
Language : Bengali
Service kind : Complete Main
Default : Yes
Forced : No

Text
ID : 3
Format : UTF-8
Codec ID : S_TEXT/UTF8
Codec ID/Info : UTF-8 Plain Text
Duration : 2 h 8 min
Bit rate : 48 b/s
Count of elements : 1267
Stream size : 45.6 KiB (0%)
Title : [email protected]
Default : Yes
Forced : No

Padma Nadir Majhi Screenshots:



















Download 1080p – 6.87GB

For All Bengali Movies Click Here

Facebook Comments Box

Duration: 126 min

Quality: WEB-DL

Release:

IMDb: 8.2