0
1 Star2 Stars3 Stars4 Stars5 Stars (No Ratings Yet)
Loading...

Panther 2019 AMZN WEB-DL

Panther 2019

Panther: Hindustan Meri Jaan Action | 127min | August 9, 2019 (India) 4.1
Director: Anshuman PratyushWriter: Prameet, Anshuman PratyushStars: Arnab Bhadra, Abhijit Bhattacharya, Tananya BhattacharyyaSummary: Terrorism has become the biggest enemy of mankind in today's time, and we often fall prey to their inhuman acts. Despite our desperate attempts, we fail to stop the terrorist organizations from harming us. But is this the reality - no reality is often different from what it seems to be. The story is a detailed account of Panther's mission. Panther was alone in the mission but love for the Country never let him feel lonely. He traveled to 3 different Countries and faced the most dangerous and risky situations, but finally come up trump. He ensures that no further attack was conducted in India. And since the mission was a covert operation without the Indian Government's consent, it remained hidden from one and all. The story shall present the inspirational story to every India and people Worldwide. Panther's determination, his love for the Country and his fearless persona help him accomplish this task, which wouldn't have been possible for anyone else. This is why Panther is known as the best undercover agent of RAW.

Photos


See all photos >>

Panther 2019

MediaInfo Panther 2019

Panther – Hindustan Meri Jaan 2019 Bengali 1080p AMZN WEB-DL DDP2.0 H264 ESub – WiKi-PiKi.mkv
Format : Matroska
Format version : Version 4
File size : 5.57 GiB
Duration : 2 h 4 min
Overall bit rate : 6 431 kb/s
Movie name : GoldminesHD.Club
Encoded date : UTC 2021-09-08 09:24:53
Writing application : mkvmerge v61.0.0 (‘So’) 64-bit
Writing library : libebml v1.4.2 + libmatroska v1.6.4

Video
ID : 1
Format : AVC
Format/Info : Advanced Video Codec
Format profile : [email protected]
Format settings : CABAC / 4 Ref Frames
Format settings, CABAC : Yes
Format settings, Reference frames : 4 frames
Codec ID : V_MPEG4/ISO/AVC
Duration : 2 h 4 min
Bit rate : 6 205 kb/s
Width : 1 920 pixels
Height : 800 pixels
Display aspect ratio : 2.40:1
Frame rate mode : Constant
Frame rate : 24.000 FPS
Color space : YUV
Chroma subsampling : 4:2:0
Bit depth : 8 bits
Scan type : Progressive
Bits/(Pixel*Frame) : 0.168
Stream size : 5.38 GiB (96%)
Title : [email protected]
Default : Yes
Forced : No
Color range : Limited
Color primaries : BT.709
Transfer characteristics : BT.709
Matrix coefficients : BT.709

Audio
ID : 2
Format : E-AC-3
Format/Info : Enhanced AC-3
Commercial name : Dolby Digital Plus
Codec ID : A_EAC3
Duration : 2 h 4 min
Bit rate mode : Constant
Bit rate : 224 kb/s
Channel(s) : 2 channels
Channel layout : L R
Sampling rate : 48.0 kHz
Frame rate : 31.250 FPS (1536 SPF)
Compression mode : Lossy
Stream size : 199 MiB (3%)
Title : [email protected]
Language : Bengali
Service kind : Complete Main
Default : Yes
Forced : No

Text
ID : 3
Format : UTF-8
Codec ID : S_TEXT/UTF8
Codec ID/Info : UTF-8 Plain Text
Duration : 1 h 58 min
Bit rate : 50 b/s
Count of elements : 1665
Stream size : 44.1 KiB (0%)
Title : [email protected]
Language : English
Default : Yes
Forced : No

Panther 2019 Screenshots:























Download 1080p – 5.57GB

For All Bengali Movies Click Here

Facebook Comments Box

Duration: 127 min

Quality: WEB-DL

Release:

IMDb: 4.1

Panther 2019 AMZN WEB-DL