0
1 Star2 Stars3 Stars4 Stars5 Stars (No Ratings Yet)
Loading...

Power 2016 AMZN WEB-DL

Power

Action | 140min | July 24, 2016 (India) 5.6
Director: Rajiv KumarStars: Sayantika Banerjee, Nitya Ganguly, Nusrat JahanSummary: Being a policeman's doppelganger is a mixed blessing in this action-packed caper.

Photos


See all photos >>

Power

Media-Info Power

Power 2016 Bengali 1080p AMZN WEB-DL DDP2.0 H264 – WiKi-PiKi.mkv
Format : Matroska
Format version : Version 4
File size : 10.4 GiB
Duration : 2 h 36 min
Overall bit rate : 9 556 kb/s
Movie name : GoldminesHD.Club
Encoded date : UTC 2021-10-02 09:11:38
Writing application : mkvmerge v56.1.0 (‘My Friend’) 64-bit
Writing library : libebml v1.4.2 + libmatroska v1.6.4

Video
ID : 1
Format : AVC
Format/Info : Advanced Video Codec
Format profile : [email protected]
Format settings : CABAC / 4 Ref Frames
Format settings, CABAC : Yes
Format settings, Reference frames : 4 frames
Codec ID : V_MPEG4/ISO/AVC
Duration : 2 h 36 min
Bit rate : 9 331 kb/s
Width : 1 920 pixels
Height : 816 pixels
Display aspect ratio : 2.35:1
Frame rate mode : Constant
Frame rate : 24.000 FPS
Color space : YUV
Chroma subsampling : 4:2:0
Bit depth : 8 bits
Scan type : Progressive
Bits/(Pixel*Frame) : 0.248
Stream size : 10.2 GiB (98%)
Title : [email protected]
Default : Yes
Forced : No
Color range : Limited
Color primaries : BT.709
Transfer characteristics : BT.709
Matrix coefficients : BT.709

Audio
ID : 2
Format : E-AC-3
Format/Info : Enhanced AC-3
Commercial name : Dolby Digital Plus
Codec ID : A_EAC3
Duration : 2 h 36 min
Bit rate mode : Constant
Bit rate : 224 kb/s
Channel(s) : 2 channels
Channel layout : L R
Sampling rate : 48.0 kHz
Frame rate : 31.250 FPS (1536 SPF)
Compression mode : Lossy
Delay relative to video : -83 ms
Stream size : 250 MiB (2%)
Title : [email protected]
Language : Bengali
Service kind : Complete Main
Default : Yes
Forced : No

Power Screenshots:

Download 1080p – 10.41GB

For All Bengali Movies Click Here

Facebook Comments Box

Views: 104

Genre: ActionComedyDrama

Director:

Actors: , ,

Country:

Duration: 140 min

Quality: WEB-DL

Release:

IMDb: 5.7

Power 2016 AMZN WEB-DL