0
1 Star2 Stars3 Stars4 Stars5 Stars (No Ratings Yet)
Loading...

Pratighat 2021

Pratighat

Romance | 138min | August 27, 2021 (India)
Director: Rajiv Kumar BiswasWriter: Rajiv Kumar BiswasStars: Sabyasachi Chakrabarty, Soham Chakraborty, Payel SarkarSummary: Chandu, a gangster, comes to the rescue of Puja, a distressed girl, and they eventually fall in love. However, things take an unexpected turn when Chandu's past comes back to haunt him.

Pratighat 2021

Media-Info Pratighat

Pratighat.2021.1080p.ZEE5.WEB-DL.AAC2.0.H.264-Telly.mkv
Format : Matroska
Format version : Version 4
File size : 2.32 GiB
Duration : 2 h 18 min
Overall bit rate mode : Variable
Overall bit rate : 2 396 kb/s
Encoded date : UTC 2021-08-26 19:26:29
Writing application : mkvmerge v11.0.0 (‘Alive’) 64bit
Writing library : libebml v1.3.4 + libmatroska v1.4.5

Video
ID : 1
Format : AVC
Format/Info : Advanced Video Codec
Format profile : [email protected]
Format settings : CABAC / 4 Ref Frames
Format settings, CABAC : Yes
Format settings, Reference frames : 4 frames
Format settings, GOP : M=4, N=50
Codec ID : V_MPEG4/ISO/AVC
Duration : 2 h 18 min
Bit rate mode : Variable
Bit rate : 2 329 kb/s
Maximum bit rate : 4 300 kb/s
Width : 1 920 pixels
Height : 1 080 pixels
Display aspect ratio : 16:9
Frame rate mode : Constant
Frame rate : 25.000 FPS
Color space : YUV
Chroma subsampling : 4:2:0
Bit depth : 8 bits
Scan type : Progressive
Bits/(Pixel*Frame) : 0.045
Stream size : 2.26 GiB (97%)
Default : Yes
Forced : No
Color range : Limited
Color primaries : BT.709
Transfer characteristics : BT.709
Matrix coefficients : BT.709

Audio
ID : 2
Format : AAC LC
Format/Info : Advanced Audio Codec Low Complexity
Codec ID : A_AAC-2
Duration : 2 h 18 min
Bit rate : 64.0 kb/s
Channel(s) : 2 channels
Channel layout : L R
Sampling rate : 48.0 kHz
Frame rate : 46.875 FPS (1024 SPF)
Compression mode : Lossy
Stream size : 63.5 MiB (3%)
Language : Bengali
Default : Yes
Forced : No

Text
ID : 3
Format : UTF-8
Codec ID : S_TEXT/UTF8
Codec ID/Info : UTF-8 Plain Text
Duration : 2 h 14 min
Bit rate : 43 b/s
Count of elements : 1435
Stream size : 42.2 KiB (0%)
Language : English
Default : No
Forced : No

Screenshots:

Pratighat

Pratighat

Download 1080p – 2.32GB

For All Bengali Movies Click Here

Facebook Comments Box

Duration:

Quality: WEB-DL

Release: