0
1 Star2 Stars3 Stars4 Stars5 Stars (No Ratings Yet)
Loading...

Priyuraalu 2021

Priyuraalu

Romance | September 17, 2021 (India)

Priyuraalu

Media-Info Priyuraalu

Priyuraalu.2021.1080p.SONY.WEB-DL.AAC2.0.x264-Telly.mkv
Format : Matroska
Format version : Version 4
File size : 1.95 GiB
Duration : 1 h 54 min
Overall bit rate mode : Variable
Overall bit rate : 2 442 kb/s
Movie name : Telly
Encoded date : UTC 2021-09-16 17:02:38
Writing application : mkvmerge v44.0.0 (‘Domino’) 64-bit
Writing library : libebml v1.3.10 + libmatroska v1.5.2

Video
ID : 1
Format : AVC
Format/Info : Advanced Video Codec
Format profile : [email protected]
Format settings : CABAC / 4 Ref Frames
Format settings, CABAC : Yes
Format settings, Reference frames : 4 frames
Codec ID : V_MPEG4/ISO/AVC
Duration : 1 h 54 min
Bit rate mode : Variable
Bit rate : 2 376 kb/s
Maximum bit rate : 5 500 kb/s
Width : 1 920 pixels
Height : 1 080 pixels
Display aspect ratio : 16:9
Frame rate mode : Constant
Frame rate : 25.000 FPS
Color space : YUV
Chroma subsampling : 4:2:0
Bit depth : 8 bits
Scan type : Progressive
Bits/(Pixel*Frame) : 0.046
Stream size : 1.90 GiB (97%)
Default : Yes
Forced : No

Audio
ID : 2
Format : AAC LC SBR
Format/Info : Advanced Audio Codec Low Complexity with Spectral Band Replication
Commercial name : HE-AAC
Format settings : Explicit
Codec ID : A_AAC-2
Duration : 1 h 54 min
Bit rate : 64.0 kb/s
Channel(s) : 2 channels
Channel layout : L R
Sampling rate : 96.0 kHz
Frame rate : 46.875 FPS (2048 SPF)
Compression mode : Lossy
Stream size : 52.3 MiB (3%)
Language : Telugu
Default : Yes
Forced : No

Text
ID : 3
Format : UTF-8
Codec ID : S_TEXT/UTF8
Codec ID/Info : UTF-8 Plain Text
Duration : 1 h 49 min
Bit rate : 59 b/s
Count of elements : 1412
Stream size : 47.6 KiB (0%)
Language : English
Default : No
Forced : No

Priyuraalu Screenshots:

Priyuraalu

Priyuraalu

Priyuraalu

Priyuraalu

Download 1080p – 1.95GB

For All Hindi Movies Click Here

Facebook Comments Box

Duration:

Quality: WEB-DL

Release: