0
1 Star2 Stars3 Stars4 Stars5 Stars (No Ratings Yet)
Loading...

Professor Shanku O El Dorado 2019 AMZN WEB-DL MSub

Professor Shanku O El Dorado

Professor Shanku O El Dorado (2019) Drama | 90min | 1 December 2019 (India) 5.3
Director: Sandip RayWriter: Sandip Ray, Satyajit RayStars: Raneth Tomas Barbosa, Ashoke Barman, Sadhan BhattacharyaSummary: This is adventure story of the genius scientist and inventor Professor Shonku to the heart of the Amazon forests in search of the mythical city of El Dorado. One day a typical Bengali gentleman Nakur Chandra Biswas alias Nakurbabu comes to meet him in Shonku's house in Giridih. He lives in Makardaha. Shonku realises that Nakurbabu has supernatural power having ability to read others mind and to see future. Nakurbabu warns him about the upcoming incidents of Sau Paulo. Seeing his extrasensory power, amazed Shonku goes to Brazil with Nakurbabu to join a science conference and the mystery starts which ends in a fabled city in the Brazilian Amazon. Written by aslifahim

Photos


See all photos >>

Professor Shanku O El Dorado

Media-Info Professor Shanku O El Dorado

Professor Shanku O El Dorado 2019 1080p AMZN WEB-DL DDP5.1 H264 MSub – WiKi-PiKi.mkv
Format : Matroska
Format version : Version 4
File size : 4.51 GiB
Duration : 1 h 30 min
Overall bit rate : 7 120 kb/s
Movie name : GoldminesHD.Club
Encoded date : UTC 2021-09-03 11:16:31
Writing application : mkvmerge v56.1.0 (‘My Friend’) 64-bit
Writing library : libebml v1.4.2 + libmatroska v1.6.4
Attachments : WiKi-PiKi.jpg

Video
ID : 1
Format : AVC
Format/Info : Advanced Video Codec
Format profile : [email protected]
Format settings : CABAC / 4 Ref Frames
Format settings, CABAC : Yes
Format settings, Reference frames : 4 frames
Codec ID : V_MPEG4/ISO/AVC
Duration : 1 h 30 min
Bit rate : 6 477 kb/s
Width : 1 920 pixels
Height : 800 pixels
Display aspect ratio : 2.40:1
Frame rate mode : Constant
Frame rate : 24.000 FPS
Color space : YUV
Chroma subsampling : 4:2:0
Bit depth : 8 bits
Scan type : Progressive
Bits/(Pixel*Frame) : 0.176
Stream size : 4.11 GiB (91%)
Title : [email protected]
Default : Yes
Forced : No
Color range : Limited
Color primaries : BT.709
Transfer characteristics : BT.709
Matrix coefficients : BT.709

Audio
ID : 2
Format : E-AC-3
Format/Info : Enhanced AC-3
Commercial name : Dolby Digital Plus
Codec ID : A_EAC3
Duration : 1 h 30 min
Bit rate mode : Constant
Bit rate : 640 kb/s
Channel(s) : 6 channels
Channel layout : L R C LFE Ls Rs
Sampling rate : 48.0 kHz
Frame rate : 31.250 FPS (1536 SPF)
Compression mode : Lossy
Stream size : 416 MiB (9%)
Title : [email protected]
Language : Bengali
Service kind : Complete Main
Default : Yes
Forced : No

Text #1
ID : 3
Format : UTF-8
Codec ID : S_TEXT/UTF8
Codec ID/Info : UTF-8 Plain Text
Duration : 1 h 23 min
Bit rate : 59 b/s
Count of elements : 1125
Stream size : 36.3 KiB (0%)
Title : [email protected]
Language : English
Default : Yes
Forced : No

Text #2
ID : 4
Format : UTF-8
Codec ID : S_TEXT/UTF8
Codec ID/Info : UTF-8 Plain Text
Duration : 1 h 23 min
Bit rate : 120 b/s
Count of elements : 1091
Stream size : 73.4 KiB (0%)
Title : [email protected]
Language : Hindi
Default : No
Forced : No

Text #3
ID : 5
Format : UTF-8
Codec ID : S_TEXT/UTF8
Codec ID/Info : UTF-8 Plain Text
Duration : 1 h 25 min
Bit rate : 58 b/s
Count of elements : 1129
Stream size : 36.5 KiB (0%)
Title : [email protected]
Language : Portuguese
Default : No
Forced : No

Text #4
ID : 6
Format : UTF-8
Codec ID : S_TEXT/UTF8
Codec ID/Info : UTF-8 Plain Text
Duration : 1 h 23 min
Bit rate : 167 b/s
Count of elements : 1102
Stream size : 102 KiB (0%)
Title : [email protected]
Language : Tamil
Default : No
Forced : No

Text #5
ID : 7
Format : UTF-8
Codec ID : S_TEXT/UTF8
Codec ID/Info : UTF-8 Plain Text
Duration : 1 h 23 min
Bit rate : 133 b/s
Count of elements : 1098
Stream size : 81.3 KiB (0%)
Title : [email protected]
Language : Telugu
Default : No
Forced : No

Text #6
ID : 8
Format : UTF-8
Codec ID : S_TEXT/UTF8
Codec ID/Info : UTF-8 Plain Text
Duration : 1 h 23 min
Bit rate : 133 b/s
Count of elements : 1154
Stream size : 81.1 KiB (0%)
Title : [email protected]
Language : Thai
Default : No
Forced : No

Screenshots:


















Download 1080p – 4.51GB

For All Bengali Movies Click Here

Facebook Comments Box
Professor Shanku O El Dorado 2019 AMZN WEB-DL MSub