0
1 Star2 Stars3 Stars4 Stars5 Stars (No Ratings Yet)
Loading...

Puaada 2021

Puaada

Quarrel Comedy, Drama, Musical | 130min | August 12, 2021 (United States) 6.0
Director: Rupinder ChahalWriter: Anil Rodhan, Rupinder Chahal, Balwinder Singh JanjuaStars: Ammy Virk, Sonam Bajwa, Hardeep GillSummary: Puaada (Conflict/Quarrel) revolves around a lovable and exuberant man from Punjab, Jaggi (Ammy Virk) and the mesmerizing girl next door, Raunak (Sonam Bajwa). Jaggi is a farmer and supplies dairy to every family in his hometown. One such family is Raunak's whose father is an Air Force Officer. Jaggi and Raunak are in a relationship and decide to confess their love to their parents but Raunak's father disapproves of their relationship as he wanted a groom to be educated and be in the armed forces like him, and Jaggi's mom disapproves as she wants a simple village girl for her son. They families eventually agree to meet but the twist in the tale comes when Jaggi pulls away unexpectedly. This results in a Puaada (conflict/quarrel) between them and within the families, leading to hilarious situations. Puaada is a complete family romance comedy of errors, an entertainer where Jaggi and Raunak must rise above all to save their relationship and get out everyone including themselves out of this Puaada.

Photos


See all photos >>

Puaada

Media-Info Puaada

Puaada.2021.1080p.ZEE5.WEB-DL.AAC2.0.H.264-Telly.mkv
Format : Matroska
Format version : Version 4
File size : 2.59 GiB
Duration : 2 h 4 min
Overall bit rate mode : Variable
Overall bit rate : 2 979 kb/s
Encoded date : UTC 2021-09-16 17:52:32
Writing application : mkvmerge v11.0.0 (‘Alive’) 64bit
Writing library : libebml v1.3.4 + libmatroska v1.4.5

Video
ID : 1
Format : AVC
Format/Info : Advanced Video Codec
Format profile : [email protected]
Format settings : CABAC / 4 Ref Frames
Format settings, CABAC : Yes
Format settings, Reference frames : 4 frames
Format settings, GOP : M=4, N=50
Codec ID : V_MPEG4/ISO/AVC
Duration : 2 h 4 min
Bit rate mode : Variable
Bit rate : 2 913 kb/s
Maximum bit rate : 4 300 kb/s
Width : 1 920 pixels
Height : 818 pixels
Display aspect ratio : 2.35:1
Frame rate mode : Constant
Frame rate : 25.000 FPS
Standard : PAL
Color space : YUV
Chroma subsampling : 4:2:0
Bit depth : 8 bits
Scan type : Progressive
Bits/(Pixel*Frame) : 0.074
Stream size : 2.53 GiB (98%)
Default : Yes
Forced : No
Color range : Limited
Color primaries : BT.709
Transfer characteristics : BT.709
Matrix coefficients : BT.709

Audio
ID : 2
Format : AAC LC
Format/Info : Advanced Audio Codec Low Complexity
Codec ID : A_AAC-2
Duration : 2 h 4 min
Bit rate : 64.0 kb/s
Channel(s) : 2 channels
Channel layout : L R
Sampling rate : 48.0 kHz
Frame rate : 46.875 FPS (1024 SPF)
Compression mode : Lossy
Stream size : 57.0 MiB (2%)
Language : Panjabi
Default : Yes
Forced : No

Text
ID : 3
Format : UTF-8
Codec ID : S_TEXT/UTF8
Codec ID/Info : UTF-8 Plain Text
Duration : 2 h 2 min
Bit rate : 87 b/s
Count of elements : 2227
Stream size : 78.4 KiB (0%)
Language : English
Default : No
Forced : No

Puaada Screenshots:

Puaada

Puaada

Puaada

Puaada

Download 1080p – 2.59GB

Download 720p – 1.13GB

For All Punjabi Movies Click Here

Facebook Comments Box

Duration: 130 min

Quality: WEB-DL

Release:

IMDb: 6.0

Puaada 2021