0
1 Star2 Stars3 Stars4 Stars5 Stars (No Ratings Yet)
Loading...

Raame Aandalum Raavane Aandalum 2021 AMZN WEB-DL

Raame Aandalum Raavane Aandalum

Comedy, Drama | September 24, 2021 (India) 7.0
Director: Arisil MoorthyStars: Ramya Pandiyan, Vani Bhojan, Mithun ManickamSummary: Raame Aandalum Raavane Aandalum also known as RARA talks about a village, which is breaking news in all television channels in India but the people of the village don't have electricity to watch Television.

Photos


See all photos >>

Raame Aandalum Raavane Aandalum

Media-Info Raame Aandalum Raavane Aandalum

Raame.Aandalum.Raavane.Aandalum.2021.1080p.AMZN.WEB-DL.DDP5.1.H.264-Telly.mkv
Format : Matroska
Format version : Version 4
File size : 7.14 GiB
Duration : 1 h 52 min
Overall bit rate : 9 106 kb/s
Movie name : Telly
Encoded date : UTC 2021-09-23 17:08:01
Writing application : mkvmerge v59.0.0 (‘Shining Star’) 64-bit
Writing library : libebml v1.4.2 + libmatroska v1.6.4

Video
ID : 1
Format : AVC
Format/Info : Advanced Video Codec
Format profile : [email protected]
Format settings : CABAC / 4 Ref Frames
Format settings, CABAC : Yes
Format settings, Reference frames : 4 frames
Codec ID : V_MPEG4/ISO/AVC
Duration : 1 h 52 min
Bit rate mode : Constant
Bit rate : 8 464 kb/s
Nominal bit rate : 10 000 kb/s
Width : 1 920 pixels
Height : 816 pixels
Display aspect ratio : 2.35:1
Frame rate mode : Constant
Frame rate : 24.000 FPS
Color space : YUV
Chroma subsampling : 4:2:0
Bit depth : 8 bits
Scan type : Progressive
Bits/(Pixel*Frame) : 0.225
Stream size : 6.64 GiB (93%)
Default : Yes
Forced : No
Color range : Limited
Color primaries : BT.709
Transfer characteristics : BT.709
Matrix coefficients : BT.709

Audio
ID : 2
Format : E-AC-3
Format/Info : Enhanced AC-3
Commercial name : Dolby Digital Plus
Codec ID : A_EAC3
Duration : 1 h 52 min
Bit rate mode : Constant
Bit rate : 640 kb/s
Channel(s) : 6 channels
Channel layout : L R C LFE Ls Rs
Sampling rate : 48.0 kHz
Frame rate : 31.250 FPS (1536 SPF)
Compression mode : Lossy
Stream size : 514 MiB (7%)
Title : Tamil
Language : Tamil
Service kind : Complete Main
Default : No
Forced : No

Text
ID : 3
Format : UTF-8
Codec ID : S_TEXT/UTF8
Codec ID/Info : UTF-8 Plain Text
Duration : 1 h 49 min
Bit rate : 68 b/s
Count of elements : 1542
Stream size : 55.2 KiB (0%)
Title : English
Language : English
Default : No
Forced : No

Raame Aandalum Raavane Aandalum Screenshots:

Raame Aandalum Raavane Aandalum

Raame Aandalum Raavane Aandalum

Raame Aandalum Raavane Aandalum

Download 1080p – 7.14GB

Download 2160p HEVC – 7.19GB

For All Tamil Movies Click Here

Facebook Comments Box

Duration: N/A

Quality: WEB-DL

Release:

IMDb: N/A

Raame Aandalum Raavane Aandalum 2021 AMZN WEB-DL
Raame Aandalum Raavane Aandalum 2021 AMZN WEB-DL