0
1 Star2 Stars3 Stars4 Stars5 Stars (No Ratings Yet)
Loading...

Race 3 2018 AMZN WEB-DL MSub

Race 3

Гонка 3 Action, Crime, Thriller | 160min | June 15, 2018 (United States) 1.9
Director: Remo D'SouzaWriter: Shiraz Ahmed, Kiran Kotrial, Ali JackoStars: Anil Kapoor, Salman Khan, Bobby DeolSummary: Text: 25 years ago arms dealer Shamsher Singh shifted to Al Shifa island with his family .When he was accused of doing illegal business of arms by government of India.He has a business rival Rana who has attacked him many a times.But his nephew Sikander always came to his rescue who is also closest person to him and further who can take over his business.Twins Sanjana and Suraj kids of Shamsher don't go well with Sikander.Shamesher has a dream to go back to India and Sikander is his only hope.Apart from twin cousin's Sikander will have to face betrayal from trusted aide Yash and Jessica his loves who is not who she claims to be. —[email protected]

Photos


See all photos >>

Race 3

Media-Info Race 3

Race 3 2018 Hindi 1080p AMZN WEB-DL DDP5.1 H264 MSub – WiKi-PiKi.mkv
Format : Matroska
Format version : Version 4
File size : 6.09 GiB
Duration : 2 h 39 min
Overall bit rate : 5 482 kb/s
Movie name : GoldminesHD.Club
Encoded date : UTC 2021-08-29 06:01:53
Writing application : mkvmerge v56.1.0 (‘My Friend’) 64-bit
Writing library : libebml v1.4.2 + libmatroska v1.6.4
Attachments : WiKi-PiKi.jpg

Video
ID : 1
Format : AVC
Format/Info : Advanced Video Codec
Format profile : [email protected]
Format settings : CABAC / 4 Ref Frames
Format settings, CABAC : Yes
Format settings, Reference frames : 4 frames
Codec ID : V_MPEG4/ISO/AVC
Duration : 2 h 39 min
Bit rate : 4 838 kb/s
Width : 1 920 pixels
Height : 816 pixels
Display aspect ratio : 2.35:1
Frame rate mode : Constant
Frame rate : 24.000 FPS
Color space : YUV
Chroma subsampling : 4:2:0
Bit depth : 8 bits
Scan type : Progressive
Bits/(Pixel*Frame) : 0.129
Stream size : 5.37 GiB (88%)
Title : [email protected]
Default : Yes
Forced : No
Color range : Limited
Color primaries : BT.709
Transfer characteristics : BT.709
Matrix coefficients : BT.709

Audio
ID : 2
Format : E-AC-3
Format/Info : Enhanced AC-3
Commercial name : Dolby Digital Plus
Codec ID : A_EAC3
Duration : 2 h 39 min
Bit rate mode : Constant
Bit rate : 640 kb/s
Channel(s) : 6 channels
Channel layout : L R C LFE Ls Rs
Sampling rate : 48.0 kHz
Frame rate : 31.250 FPS (1536 SPF)
Compression mode : Lossy
Stream size : 728 MiB (12%)
Title : [email protected]
Language : Hindi
Service kind : Complete Main
Default : Yes
Forced : No

Text #1
ID : 3
Format : UTF-8
Codec ID : S_TEXT/UTF8
Codec ID/Info : UTF-8 Plain Text
Duration : 2 h 31 min
Bit rate : 48 b/s
Count of elements : 1828
Stream size : 53.3 KiB (0%)
Title : [email protected]
Language : English
Default : Yes
Forced : No

Text #2
ID : 4
Format : UTF-8
Codec ID : S_TEXT/UTF8
Codec ID/Info : UTF-8 Plain Text
Duration : 2 h 34 min
Bit rate : 69 b/s
Count of elements : 1854
Stream size : 78.7 KiB (0%)
Title : [email protected]
Language : Arabic
Default : No
Forced : No

Text #3
ID : 5
Format : UTF-8
Codec ID : S_TEXT/UTF8
Codec ID/Info : UTF-8 Plain Text
Duration : 2 h 31 min
Bit rate : 42 b/s
Count of elements : 1786
Stream size : 47.5 KiB (0%)
Title : [email protected]
Language : Danish
Default : No
Forced : No

Text #4
ID : 6
Format : UTF-8
Codec ID : S_TEXT/UTF8
Codec ID/Info : UTF-8 Plain Text
Duration : 2 h 31 min
Bit rate : 47 b/s
Count of elements : 1786
Stream size : 52.4 KiB (0%)
Title : [email protected]
Language : Finnish
Default : No
Forced : No

Text #5
ID : 7
Format : UTF-8
Codec ID : S_TEXT/UTF8
Codec ID/Info : UTF-8 Plain Text
Duration : 2 h 38 min
Bit rate : 37 b/s
Count of elements : 1637
Stream size : 43.6 KiB (0%)
Title : [email protected]
Language : Indonesian
Default : No
Forced : No

Text #6
ID : 8
Format : UTF-8
Codec ID : S_TEXT/UTF8
Codec ID/Info : UTF-8 Plain Text
Duration : 2 h 31 min
Bit rate : 40 b/s
Count of elements : 1618
Stream size : 44.3 KiB (0%)
Title : [email protected]
Language : Norwegian Bokmal
Default : No
Forced : No

Text #7
ID : 9
Format : UTF-8
Codec ID : S_TEXT/UTF8
Codec ID/Info : UTF-8 Plain Text
Duration : 2 h 31 min
Bit rate : 76 b/s
Count of elements : 1825
Stream size : 84.7 KiB (0%)
Title : [email protected]
Language : Russian
Default : No
Forced : No

Text #8
ID : 10
Format : UTF-8
Codec ID : S_TEXT/UTF8
Codec ID/Info : UTF-8 Plain Text
Duration : 2 h 31 min
Bit rate : 43 b/s
Count of elements : 1473
Stream size : 48.5 KiB (0%)
Title : [email protected]
Language : Swedish
Default : No
Forced : No

Text #9
ID : 11
Format : UTF-8
Codec ID : S_TEXT/UTF8
Codec ID/Info : UTF-8 Plain Text
Duration : 2 h 32 min
Bit rate : 154 b/s
Count of elements : 1872
Stream size : 173 KiB (0%)
Title : [email protected]
Language : Tamil
Default : No
Forced : No

Text #10
ID : 12
Format : UTF-8
Codec ID : S_TEXT/UTF8
Codec ID/Info : UTF-8 Plain Text
Duration : 2 h 32 min
Bit rate : 130 b/s
Count of elements : 1872
Stream size : 146 KiB (0%)
Title : [email protected]
Language : Telugu
Default : No
Forced : No

Text #11
ID : 13
Format : UTF-8
Codec ID : S_TEXT/UTF8
Codec ID/Info : UTF-8 Plain Text
Duration : 2 h 34 min
Bit rate : 113 b/s
Count of elements : 1761
Stream size : 128 KiB (0%)
Title : [email protected]
Language : Thai
Default : No
Forced : No

Text #12
ID : 14
Format : UTF-8
Codec ID : S_TEXT/UTF8
Codec ID/Info : UTF-8 Plain Text
Duration : 2 h 31 min
Bit rate : 39 b/s
Count of elements : 1859
Stream size : 43.9 KiB (0%)
Title : [email protected]
Language : Chinese
Default : No
Forced : No

Text #13
ID : 15
Format : UTF-8
Codec ID : S_TEXT/UTF8
Codec ID/Info : UTF-8 Plain Text
Duration : 2 h 34 min
Bit rate : 43 b/s
Count of elements : 1752
Stream size : 49.5 KiB (0%)
Title : [email protected]
Language : Chinese
Default : No
Forced : No

Race 3 Screenshots:







































Download 1080p – 6.09GB

For All Hindi Movies Click Here 

Facebook Comments Box

Duration: 160 min

Quality: WEB-DL

Release:

IMDb: 1.9

Race 3 2018 AMZN WEB-DL MSub
Race 3 2018 AMZN WEB-DL MSub
Race 3 2018 AMZN WEB-DL MSub
Race 3 2018 AMZN WEB-DL MSub
Race 3 2018 AMZN WEB-DL MSub
Race 3 2018 AMZN WEB-DL MSub
Race 3 2018 AMZN WEB-DL MSub
Race 3 2018 AMZN WEB-DL MSub
Race 3 2018 AMZN WEB-DL MSub
Race 3 2018 AMZN WEB-DL MSub