0
1 Star2 Stars3 Stars4 Stars5 Stars (No Ratings Yet)
Loading...

Raja the Great 2017 Telugu AMZN WEB-DL

Raja the Great

Великий Раджа Action, Comedy | 149min | October 17, 2017 (United States) 6.5
Director: Anil RavipudiWriter: Anil RavipudiStars: Ravi Teja, Mehreen Pirzada, Vivan BhatenaSummary: A Blind and well trained guy raja the great (raviteja) enters into a mission to save a girl lucky (mehreen) from villain who is seeking revenge for killing his brother by her father (prakash Raj) who was a honest police officer. The charactor of the protagonist is made with full entertaining and fully loaded logicals action sequences. —narender rao

Photos


See all photos >>

Raja The Great

Media-Info Raja the Great

Raja The Great 2017 Telugu 1080p AMZN WEB-DL DDP5.1 H264 MSub – WiKi-PiKi.mkv
Format : Matroska
Format version : Version 4
File size : 7.61 GiB
Duration : 2 h 30 min
Overall bit rate : 7 239 kb/s
Movie name : GoldminesHD.Club
Encoded date : UTC 2021-09-09 03:21:03
Writing application : mkvmerge v56.1.0 (‘My Friend’) 64-bit
Writing library : libebml v1.4.2 + libmatroska v1.6.4
Attachments : WiKi-PiKi.jpg

Video
ID : 1
Format : AVC
Format/Info : Advanced Video Codec
Format profile : [email protected]
Format settings : CABAC / 4 Ref Frames
Format settings, CABAC : Yes
Format settings, Reference frames : 4 frames
Codec ID : V_MPEG4/ISO/AVC
Duration : 2 h 30 min
Bit rate : 6 595 kb/s
Width : 1 920 pixels
Height : 816 pixels
Display aspect ratio : 2.35:1
Frame rate mode : Constant
Frame rate : 24.000 FPS
Color space : YUV
Chroma subsampling : 4:2:0
Bit depth : 8 bits
Scan type : Progressive
Bits/(Pixel*Frame) : 0.175
Stream size : 6.93 GiB (91%)
Title : [email protected]
Default : Yes
Forced : No
Color range : Limited
Color primaries : BT.709
Transfer characteristics : BT.709
Matrix coefficients : BT.709

Audio
ID : 2
Format : E-AC-3
Format/Info : Enhanced AC-3
Commercial name : Dolby Digital Plus
Codec ID : A_EAC3
Duration : 2 h 30 min
Bit rate mode : Constant
Bit rate : 640 kb/s
Channel(s) : 6 channels
Channel layout : L R C LFE Ls Rs
Sampling rate : 48.0 kHz
Frame rate : 31.250 FPS (1536 SPF)
Compression mode : Lossy
Stream size : 689 MiB (9%)
Title : [email protected]
Language : Telugu
Service kind : Complete Main
Default : Yes
Forced : No

Text #1
ID : 3
Format : UTF-8
Codec ID : S_TEXT/UTF8
Codec ID/Info : UTF-8 Plain Text
Duration : 2 h 27 min
Bit rate : 69 b/s
Count of elements : 2204
Stream size : 74.6 KiB (0%)
Title : [email protected]
Language : English
Default : Yes
Forced : No

Text #2
ID : 4
Format : UTF-8
Codec ID : S_TEXT/UTF8
Codec ID/Info : UTF-8 Plain Text
Duration : 2 h 27 min
Bit rate : 99 b/s
Count of elements : 2174
Stream size : 107 KiB (0%)
Title : [email protected]
Language : Arabic
Default : No
Forced : No

Text #3
ID : 5
Format : UTF-8
Codec ID : S_TEXT/UTF8
Codec ID/Info : UTF-8 Plain Text
Duration : 2 h 28 min
Bit rate : 153 b/s
Count of elements : 2210
Stream size : 167 KiB (0%)
Title : [email protected]
Language : Hindi
Default : No
Forced : No

Text #4
ID : 6
Format : UTF-8
Codec ID : S_TEXT/UTF8
Codec ID/Info : UTF-8 Plain Text
Duration : 2 h 27 min
Bit rate : 63 b/s
Count of elements : 2161
Stream size : 68.0 KiB (0%)
Title : [email protected]
Language : Indonesian
Default : No
Forced : No

Text #5
ID : 7
Format : UTF-8
Codec ID : S_TEXT/UTF8
Codec ID/Info : UTF-8 Plain Text
Duration : 2 h 27 min
Bit rate : 55 b/s
Count of elements : 1888
Stream size : 60.2 KiB (0%)
Title : [email protected]
Language : Portuguese
Default : No
Forced : No

Text #6
ID : 8
Format : UTF-8
Codec ID : S_TEXT/UTF8
Codec ID/Info : UTF-8 Plain Text
Duration : 2 h 27 min
Bit rate : 98 b/s
Count of elements : 2170
Stream size : 106 KiB (0%)
Title : [email protected]
Language : Russian
Default : No
Forced : No

Text #7
ID : 9
Format : UTF-8
Codec ID : S_TEXT/UTF8
Codec ID/Info : UTF-8 Plain Text
Duration : 2 h 27 min
Bit rate : 193 b/s
Count of elements : 2208
Stream size : 208 KiB (0%)
Title : [email protected]
Language : Tamil
Default : No
Forced : No

Text #8
ID : 10
Format : UTF-8
Codec ID : S_TEXT/UTF8
Codec ID/Info : UTF-8 Plain Text
Duration : 2 h 28 min
Bit rate : 159 b/s
Count of elements : 2164
Stream size : 173 KiB (0%)
Title : [email protected]
Language : Thai
Default : No
Forced : No

Text #9
ID : 11
Format : UTF-8
Codec ID : S_TEXT/UTF8
Codec ID/Info : UTF-8 Plain Text
Duration : 2 h 27 min
Bit rate : 67 b/s
Count of elements : 2209
Stream size : 72.5 KiB (0%)
Title : [email protected]
Language : Chinese
Default : No
Forced : No

Text #10
ID : 12
Format : UTF-8
Codec ID : S_TEXT/UTF8
Codec ID/Info : UTF-8 Plain Text
Duration : 2 h 27 min
Bit rate : 70 b/s
Count of elements : 2199
Stream size : 75.9 KiB (0%)
Title : [email protected]
Language : Chinese
Default : No
Forced : No

Raja The Great Screenshots:








































Download 1080p – 7.61GB

For All Telugu Movies Click Here

Facebook Comments Box

Duration: 149 min

Quality: WEB-DL

Release:

IMDb: 6.5

Raja the Great 2017 Telugu AMZN WEB-DL
Raja the Great 2017 Telugu AMZN WEB-DL