0
1 Star2 Stars3 Stars4 Stars5 Stars (No Ratings Yet)
Loading...

Rawkto Rawhoshyo 2020 Bengali AMZN WEB-DL [First On Net]

Rawkto Rawhoshyo

Drama, Thriller | 122min | October 21, 2020 (India) 7.6

Photos


See all photos >>

Rawkto Rawhoshyo

Media-Info Rawkto Rawhoshyo

Rawkto Rawhoshyo 2020 Bengali 1080p AMZN WEB-DL DDP2.0 H264 – WiKi-PiKi.mkv
Format : Matroska
Format version : Version 4
File size : 6.30 GiB
Duration : 2 h 0 min
Overall bit rate mode : Constant
Overall bit rate : 7 458 kb/s
Movie name : GoldminesHD.Club
Encoded date : UTC 2021-10-14 03:43:14
Writing application : mkvmerge v56.1.0 (‘My Friend’) 64-bit
Writing library : libebml v1.4.2 + libmatroska v1.6.4

Video
ID : 1
Format : AVC
Format/Info : Advanced Video Codec
Format profile : [email protected]
Format settings : CABAC / 4 Ref Frames
Format settings, CABAC : Yes
Format settings, Reference frames : 4 frames
Codec ID : V_MPEG4/ISO/AVC
Duration : 2 h 0 min
Bit rate mode : Constant
Bit rate : 7 232 kb/s
Nominal bit rate : 10 000 kb/s
Width : 1 920 pixels
Height : 816 pixels
Display aspect ratio : 2.35:1
Frame rate mode : Constant
Frame rate : 24.000 FPS
Color space : YUV
Chroma subsampling : 4:2:0
Bit depth : 8 bits
Scan type : Progressive
Bits/(Pixel*Frame) : 0.192
Stream size : 6.11 GiB (97%)
Title : [email protected]
Default : Yes
Forced : No
Color range : Limited
Color primaries : BT.709
Transfer characteristics : BT.709
Matrix coefficients : BT.709

Audio
ID : 2
Format : E-AC-3
Format/Info : Enhanced AC-3
Commercial name : Dolby Digital Plus
Codec ID : A_EAC3
Duration : 2 h 0 min
Bit rate mode : Constant
Bit rate : 224 kb/s
Channel(s) : 2 channels
Channel layout : L R
Sampling rate : 48.0 kHz
Frame rate : 31.250 FPS (1536 SPF)
Compression mode : Lossy
Stream size : 194 MiB (3%)
Title : [email protected]
Language : Bengali
Service kind : Complete Main
Default : No
Forced : No

Rawkto Rawhoshyo Screenshots:


























Download 1080p – 6.30GB

For All Bengali Movies Click Here

Facebook Comments Box

Duration: 122 min

Quality: WEB-DL

Release:

IMDb: 8.2

Rawkto Rawhoshyo 2020 Bengali AMZN WEB-DL [First On Net]