0
1 Star2 Stars3 Stars4 Stars5 Stars (No Ratings Yet)
Loading...

Roommate 2021 AMZN WEB-DL

Roommate

Drama, Thriller | 125min | 2021 (India)
Director: Vasanth NagarajanStars: Naren, Kadhambari Sowmya, VishwaSummary: Santhosh (chronic stress due to his ex-girlfriend's marriage) reprisal with Vasanth (who is getting married in couple of days) and pushed Saranya (escort) into a distinctly intentional lock inside his new build Manhattan, which is under legal issues in an inhabited high-rise, and finds hard to survive without communication to anyone and specially being with unknown. ?Vasanth Nagarajan

Photos


See all photos >>

Roommate

Media-Info Roommate

Roommate.2021.1080p.AMZN.WEB-DL.DDP2.0.H.264-Telly.mkv
Format : Matroska
Format version : Version 4
File size : 5.20 GiB
Duration : 1 h 42 min
Overall bit rate : 7 269 kb/s
Movie name : Telly
Encoded date : UTC 2021-10-02 08:51:41
Writing application : mkvmerge v59.0.0 (‘Shining Star’) 64-bit
Writing library : libebml v1.4.2 + libmatroska v1.6.4

Video
ID : 1
Format : AVC
Format/Info : Advanced Video Codec
Format profile : [email protected]
Format settings : CABAC / 4 Ref Frames
Format settings, CABAC : Yes
Format settings, ReFrames : 4 frames
Codec ID : V_MPEG4/ISO/AVC
Duration : 1 h 42 min
Bit rate mode : Constant
Bit rate : 7 043 kb/s
Nominal bit rate : 10 000 kb/s
Width : 1 920 pixels
Height : 1 080 pixels
Display aspect ratio : 16:9
Frame rate mode : Constant
Frame rate : 24.000 FPS
Color space : YUV
Chroma subsampling : 4:2:0
Bit depth : 8 bits
Scan type : Progressive
Bits/(Pixel*Frame) : 0.142
Stream size : 5.04 GiB (97%)
Default : Yes
Forced : No
Color range : Limited
Color primaries : BT.709
Transfer characteristics : BT.709
Matrix coefficients : BT.709

Audio
ID : 2
Format : E-AC-3
Format/Info : Enhanced AC-3
Commercial name : Dolby Digital Plus
Codec ID : A_EAC3
Duration : 1 h 42 min
Bit rate mode : Constant
Bit rate : 224 kb/s
Channel(s) : 2 channels
Channel layout : L R
Sampling rate : 48.0 kHz
Frame rate : 31.250 FPS (1536 SPF)
Compression mode : Lossy
Stream size : 164 MiB (3%)
Title : Hindi
Language : Hindi
Service kind : Complete Main
Default : No
Forced : No

Text #1
ID : 3
Format : UTF-8
Codec ID : S_TEXT/UTF8
Codec ID/Info : UTF-8 Plain Text
Duration : 1 h 41 min
Bit rate : 44 b/s
Count of elements : 1442
Stream size : 32.8 KiB (0%)
Title : English [SDH]
Language : English
Default : No
Forced : No

Text #2
ID : 4
Format : UTF-8
Codec ID : S_TEXT/UTF8
Codec ID/Info : UTF-8 Plain Text
Duration : 1 h 40 min
Bit rate : 38 b/s
Count of elements : 1088
Stream size : 28.1 KiB (0%)
Title : English
Language : English
Default : No
Forced : No

Roommate Screenshots:

Roommate

Roommate

Roommate

Roommate

Download 1080p – 5.2GB

Download 1080p HEVC – 2.25GB

Download 720p – 2.08GB

Download 720p HEVC – 776MB

For All Hindi Movie Click Here

Facebook Comments Box

Views: 53

Genre: DramaThriller

Director:

Actors: , ,

Country:

Duration: 125 min

Quality: WEB-DL

Release:

IMDb: N/A