0
1 Star2 Stars3 Stars4 Stars5 Stars (No Ratings Yet)
Loading...

Sathi 2002 AMZN WEB-DL

Sathi 2002

Sathi (2002) Drama, Musical, Romance | 136min | 14 June 2002 (India) 7.1
Director: Haranath ChakrabortyWriter: Manotosh Chakrabarty, Haranath ChakrabortyStars: Sanghamitra Bandyopadhyay, Ramen Roy Chowdhuri, JeetSummary: A man sacrifices everything for his love, but his identity remains hidden from her for most of the movie.

Photos


See all photos >>

Sathi 2002:Bengali Movies; goldmineshd.club;

Media-Info Sathi 2002

Sathi 2002 Bengali 1080p AMZN WEB-DL DDP2.0 H264 ESub – WiKi-PiKi.mkv
Format : Matroska
Format version : Version 4
File size : 13.6 GiB
Duration : 2 h 29 min
Overall bit rate : 13.0 Mb/s
Movie name : GoldminesHD.Club
Encoded date : UTC 2021-10-03 08:58:47
Writing application : mkvmerge v56.1.0 (‘My Friend’) 64-bit
Writing library : libebml v1.4.2 + libmatroska v1.6.4

Video
ID : 1
Format : AVC
Format/Info : Advanced Video Codec
Format profile : [email protected]
Format settings : CABAC / 4 Ref Frames
Format settings, CABAC : Yes
Format settings, Reference frames : 4 frames
Codec ID : V_MPEG4/ISO/AVC
Duration : 2 h 29 min
Bit rate : 12.8 Mb/s
Width : 1 920 pixels
Height : 816 pixels
Display aspect ratio : 2.35:1
Frame rate mode : Constant
Frame rate : 24.000 FPS
Color space : YUV
Chroma subsampling : 4:2:0
Bit depth : 8 bits
Scan type : Progressive
Bits/(Pixel*Frame) : 0.341
Stream size : 13.4 GiB (98%)
Title : [email protected]
Default : Yes
Forced : No
Color range : Limited
Color primaries : BT.709
Transfer characteristics : BT.709
Matrix coefficients : BT.709

Audio
ID : 2
Format : E-AC-3
Format/Info : Enhanced AC-3
Commercial name : Dolby Digital Plus
Codec ID : A_EAC3
Duration : 2 h 29 min
Bit rate mode : Constant
Bit rate : 224 kb/s
Channel(s) : 2 channels
Channel layout : L R
Sampling rate : 48.0 kHz
Frame rate : 31.250 FPS (1536 SPF)
Compression mode : Lossy
Delay relative to video : -83 ms
Stream size : 240 MiB (2%)
Title : [email protected]
Language : Bengali
Service kind : Complete Main
Default : Yes
Forced : No

Text
ID : 3
Format : UTF-8
Codec ID : S_TEXT/UTF8
Codec ID/Info : UTF-8 Plain Text
Duration : 2 h 27 min
Bit rate : 54 b/s
Count of elements : 1780
Stream size : 58.4 KiB (0%)
Title : [email protected]
Language : English
Default : Yes
Forced : No

Sathi 2002 Movie Screenshots












AMZN WEB-DL Download Link:

Download 1080p – 13.65GB

WEB-DL Download Link:

Download 1080p – 7.31 GB                         Download 720p – 2.98 GB

For All Bengali Movies Click Here

Facebook Comments Box

Duration: 136 min

Quality: WEB-DL

Release:

IMDb: 7.1

Sathi 2002 AMZN WEB-DL
Sathi 2002 AMZN WEB-DL
Sathi 2002 AMZN WEB-DL
Sathi 2002 AMZN WEB-DL