0
1 Star2 Stars3 Stars4 Stars5 Stars (No Ratings Yet)
Loading...

Scaredy Cats 2021 S1 NF WEB-DL

Scaredy Cats

Korkak Kediler Comedy, Family, Fantasy | October 1, 2021 (United States)

Photos


See all photos >>

Scaredy Cats

Media-Info Scaredy Cats

Scaredy.Cats.S01E01.the.Amulet.1080p.NF.WEB-DL.DD+5.1.HEVC-Telly.mkv
Format : Matroska
Format version : Version 4
File size : 2.24 GiB
Duration : 46 min 52 s
Overall bit rate : 6 852 kb/s
Movie name : Telly
Encoded date : UTC 2021-10-01 07:18:35
Writing application : mkvmerge v59.0.0 (‘Shining Star’) 64-bit
Writing library : libebml v1.4.2 + libmatroska v1.6.4

Video
ID : 1
Format : HEVC
Format/Info : High Efficiency Video Coding
Commercial name : HDR10
Format profile : Main [email protected]@Main
Codec ID : V_MPEGH/ISO/HEVC
Duration : 44 min 37 s
Bit rate : 5 845 kb/s
Width : 1 920 pixels
Height : 1 080 pixels
Display aspect ratio : 16:9
Frame rate mode : Constant
Frame rate : 23.976 (24000/1001) FPS
Color space : YUV
Chroma subsampling : 4:2:0 (Type 2)
Bit depth : 10 bits
Bits/(Pixel*Frame) : 0.118
Stream size : 1.82 GiB (81%)
Default : Yes
Forced : No
Color range : Limited
Color primaries : BT.2020
Transfer characteristics : PQ
Matrix coefficients : BT.2020 non-constant
Mastering display color primaries : Display P3
Mastering display luminance : min: 0.0001 cd/m2, max: 1000 cd/m2
Maximum Content Light Level : 1154 cd/m2
Maximum Frame-Average Light Level : 256 cd/m2

Audio #1
ID : 2
Format : E-AC-3
Format/Info : Enhanced AC-3
Commercial name : Dolby Digital Plus
Codec ID : A_EAC3
Duration : 46 min 52 s
Bit rate mode : Constant
Bit rate : 640 kb/s
Channel(s) : 6 channels
Channel layout : L R C LFE Ls Rs
Sampling rate : 48.0 kHz
Frame rate : 31.250 FPS (1536 SPF)
Compression mode : Lossy
Stream size : 215 MiB (9%)
Title : Hindi
Language : Hindi
Service kind : Complete Main
Default : Yes
Forced : No

Audio #2
ID : 3
Format : E-AC-3
Format/Info : Enhanced AC-3
Commercial name : Dolby Digital Plus
Codec ID : A_EAC3
Duration : 46 min 52 s
Bit rate mode : Constant
Bit rate : 640 kb/s
Channel(s) : 6 channels
Channel layout : L R C LFE Ls Rs
Sampling rate : 48.0 kHz
Frame rate : 31.250 FPS (1536 SPF)
Compression mode : Lossy
Stream size : 215 MiB (9%)
Title : English
Language : English
Service kind : Complete Main
Default : No
Forced : No

Text #1
ID : 4
Format : UTF-8
Codec ID : S_TEXT/UTF8
Codec ID/Info : UTF-8 Plain Text
Duration : 43 min 58 s
Bit rate : 82 b/s
Count of elements : 837
Stream size : 26.7 KiB (0%)
Title : English
Language : English
Default : No
Forced : No

Text #2
ID : 5
Format : UTF-8
Codec ID : S_TEXT/UTF8
Codec ID/Info : UTF-8 Plain Text
Duration : 43 min 58 s
Bit rate : 82 b/s
Count of elements : 837
Stream size : 26.7 KiB (0%)
Title : English
Language : English
Default : No
Forced : No

Text #3
ID : 6
Format : UTF-8
Codec ID : S_TEXT/UTF8
Codec ID/Info : UTF-8 Plain Text
Duration : 43 min 21 s
Bit rate : 110 b/s
Count of elements : 660
Stream size : 35.0 KiB (0%)
Title : Arabic
Language : Arabic
Default : No
Forced : No

Text #4
ID : 7
Format : UTF-8
Codec ID : S_TEXT/UTF8
Codec ID/Info : UTF-8 Plain Text
Duration : 44 min 21 s
Bit rate : 64 b/s
Count of elements : 725
Stream size : 21.1 KiB (0%)
Title : Chinese Simplified
Language : Chinese
Default : No
Forced : No

Text #5
ID : 8
Format : UTF-8
Codec ID : S_TEXT/UTF8
Codec ID/Info : UTF-8 Plain Text
Duration : 44 min 20 s
Bit rate : 61 b/s
Count of elements : 722
Stream size : 20.0 KiB (0%)
Title : Chinese Traditional
Language : Chinese
Default : No
Forced : No

Text #6
ID : 9
Format : UTF-8
Codec ID : S_TEXT/UTF8
Codec ID/Info : UTF-8 Plain Text
Duration : 44 min 21 s
Bit rate : 56 b/s
Count of elements : 646
Stream size : 18.2 KiB (0%)
Title : Croatian
Language : Croatian
Default : No
Forced : No

Text #7
ID : 10
Format : UTF-8
Codec ID : S_TEXT/UTF8
Codec ID/Info : UTF-8 Plain Text
Duration : 44 min 24 s
Bit rate : 49 b/s
Count of elements : 666
Stream size : 16.0 KiB (0%)
Title : Czech
Language : Czech
Default : No
Forced : No

Text #8
ID : 11
Format : UTF-8
Codec ID : S_TEXT/UTF8
Codec ID/Info : UTF-8 Plain Text
Duration : 44 min 24 s
Bit rate : 55 b/s
Count of elements : 536
Stream size : 18.1 KiB (0%)
Title : Danish
Language : Danish
Default : No
Forced : No

Text #9
ID : 12
Format : UTF-8
Codec ID : S_TEXT/UTF8
Codec ID/Info : UTF-8 Plain Text
Duration : 44 min 24 s
Bit rate : 58 b/s
Count of elements : 605
Stream size : 19.0 KiB (0%)
Title : Dutch
Language : Dutch
Default : No
Forced : No

Text #10
ID : 13
Format : UTF-8
Codec ID : S_TEXT/UTF8
Codec ID/Info : UTF-8 Plain Text
Duration : 44 min 24 s
Bit rate : 59 b/s
Count of elements : 596
Stream size : 19.4 KiB (0%)
Title : Finnish
Language : Finnish
Default : No
Forced : No

Scaredy Cats Screenshots:

Scaredy Cats

Scaredy Cats

Scaredy Cats

Scaredy Cats

S1 Complete Series Downlod Link:

Download 1080p – 13.43GB

Download 1080p HDR HEVC – 11.87GB

For All Dual Audio Movies Click Here

Facebook Comments Box