0
1 Star2 Stars3 Stars4 Stars5 Stars (No Ratings Yet)
Loading...

Schumacher 2021 NF WEB-DL

Schumacher

شوماخر Documentary, Biography, Sport | 112min | September 15, 2021 (United States) 8.3
Director: Hanns-Bruno Kammertöns, Vanessa Nöcker, Michael WechWriter: Hanns-Bruno Kammertöns, Vanessa Nöcker, Michael WechStars: Ross Brawn, Flavio Briatore, Luca Cordero di MontezemoloSummary: Followed by millions worldwide. His strong will and triumphant fight to win against all odds put Michael Schumacher at the centre of global attention. Michael Schumacher's journey has captured the imagination of millions, but there is a lot more than motor racing to the success of this very private man. However, it is not only his fighting spirit and striving for perfection that define Michael Schumacher as a person; his self-doubt and insecurities complete the picture of a sensitive and reflected man. At the heart of Michael's story are his parents, his children and Corinna Schumacher, his childhood sweetheart and the love of his life. They are now ready to tell his story.

Photos


See all photos >>

Schumacher

Media-Info Schumacher

Schumacher.2021.1080p.NF.WEB-DL.HIN-ENG.DD+5.1.x264-Telly.mkv
Format : Matroska
Format version : Version 4
File size : 5.66 GiB
Duration : 1 h 52 min
Overall bit rate mode : Variable
Overall bit rate : 7 206 kb/s
Movie name : Telly
Encoded date : UTC 2021-09-15 07:07:47
Writing application : mkvmerge v59.0.0 (‘Shining Star’) 64-bit
Writing library : libebml v1.4.2 + libmatroska v1.6.4

Video
ID : 1
Format : AVC
Format/Info : Advanced Video Codec
Format profile : [email protected]
Format settings : CABAC / 3 Ref Frames
Format settings, CABAC : Yes
Format settings, Reference frames : 3 frames
Codec ID : V_MPEG4/ISO/AVC
Duration : 1 h 52 min
Bit rate mode : Variable
Bit rate : 5 919 kb/s
Nominal bit rate : 7 255 kb/s
Maximum bit rate : 11.2 Mb/s
Width : 1 920 pixels
Height : 1 080 pixels
Display aspect ratio : 16:9
Frame rate mode : Constant
Frame rate : 25.000 FPS
Color space : YUV
Chroma subsampling : 4:2:0
Bit depth : 8 bits
Scan type : Progressive
Bits/(Pixel*Frame) : 0.114
Stream size : 4.65 GiB (82%)
Writing library : x264 core 148 r2722 1b0121b
Encoding settings : cabac=1 / ref=3 / deblock=1:0:0 / analyse=0x1:0x111 / me=umh / subme=10 / psy=1 / psy_rd=1.00:0.00 / mixed_ref=1 / me_range=24 / chroma_me=1 / trellis=2 / 8x8dct=0 / cqm=0 / deadzone=21,11 / fast_pskip=1 / chroma_qp_offset=-2 / threads=8 / lookahead_threads=1 / sliced_threads=0 / nr=0 / decimate=1 / interlaced=0 / bluray_compat=0 / stitchable=1 / constrained_intra=0 / bframes=2 / b_pyramid=0 / b_adapt=2 / b_bias=0 / direct=3 / weightb=1 / open_gop=0 / weightp=2 / keyint=250 / keyint_min=25 / scenecut=0 / intra_refresh=0 / rc_lookahead=50 / rc=2pass / mbtree=1 / bitrate=7255 / ratetol=1.0 / qcomp=0.50 / qpmin=6 / qpmax=51 / qpstep=4 / cplxblur=20.0 / qblur=0.5 / vbv_maxrate=11250 / vbv_bufsize=15000 / nal_hrd=vbr / filler=0 / ip_ratio=1.40 / aq=1:1.00
Default : Yes
Forced : No

Audio #1
ID : 2
Format : E-AC-3
Format/Info : Enhanced AC-3
Commercial name : Dolby Digital Plus
Codec ID : A_EAC3
Duration : 1 h 52 min
Bit rate mode : Constant
Bit rate : 640 kb/s
Channel(s) : 6 channels
Channel layout : L R C LFE Ls Rs
Sampling rate : 48.0 kHz
Frame rate : 31.250 FPS (1536 SPF)
Compression mode : Lossy
Stream size : 515 MiB (9%)
Title : Hindi
Language : Hindi
Service kind : Complete Main
Default : Yes
Forced : No

Audio #2
ID : 3
Format : E-AC-3
Format/Info : Enhanced AC-3
Commercial name : Dolby Digital Plus
Codec ID : A_EAC3
Duration : 1 h 52 min
Bit rate mode : Constant
Bit rate : 640 kb/s
Channel(s) : 6 channels
Channel layout : L R C LFE Ls Rs
Sampling rate : 48.0 kHz
Frame rate : 31.250 FPS (1536 SPF)
Compression mode : Lossy
Stream size : 515 MiB (9%)
Title : English
Language : English
Service kind : Complete Main
Default : No
Forced : No

Text #1
ID : 4
Format : UTF-8
Codec ID : S_TEXT/UTF8
Codec ID/Info : UTF-8 Plain Text
Duration : 1 h 49 min
Bit rate : 101 b/s
Count of elements : 1418
Stream size : 81.2 KiB (0%)
Title : English
Language : English
Default : No
Forced : No

Text #2
ID : 5
Format : UTF-8
Codec ID : S_TEXT/UTF8
Codec ID/Info : UTF-8 Plain Text
Duration : 1 h 44 min
Bit rate : 25 b/s
Count of elements : 449
Stream size : 19.8 KiB (0%)
Title : Forced
Language : English
Default : No
Forced : Yes

Text #3
ID : 6
Format : UTF-8
Codec ID : S_TEXT/UTF8
Codec ID/Info : UTF-8 Plain Text
Duration : 1 h 49 min
Bit rate : 101 b/s
Count of elements : 1418
Stream size : 81.2 KiB (0%)
Title : English
Language : English
Default : No
Forced : No

Text #4
ID : 7
Format : UTF-8
Codec ID : S_TEXT/UTF8
Codec ID/Info : UTF-8 Plain Text
Duration : 1 h 44 min
Bit rate : 25 b/s
Count of elements : 449
Stream size : 19.8 KiB (0%)
Title : Forced
Language : English
Default : No
Forced : Yes

Text #5
ID : 8
Format : UTF-8
Codec ID : S_TEXT/UTF8
Codec ID/Info : UTF-8 Plain Text
Duration : 1 h 50 min
Bit rate : 119 b/s
Count of elements : 1273
Stream size : 96.4 KiB (0%)
Title : Arabic
Language : Arabic
Default : No
Forced : No

Text #6
ID : 9
Format : UTF-8
Codec ID : S_TEXT/UTF8
Codec ID/Info : UTF-8 Plain Text
Duration : 1 h 50 min
Bit rate : 67 b/s
Count of elements : 1256
Stream size : 54.3 KiB (0%)
Title : Chinese Simplified
Language : Chinese
Default : No
Forced : No

Text #7
ID : 10
Format : UTF-8
Codec ID : S_TEXT/UTF8
Codec ID/Info : UTF-8 Plain Text
Duration : 1 h 50 min
Bit rate : 64 b/s
Count of elements : 1259
Stream size : 52.5 KiB (0%)
Title : Chinese Traditional
Language : Chinese
Default : No
Forced : No

Text #8
ID : 11
Format : UTF-8
Codec ID : S_TEXT/UTF8
Codec ID/Info : UTF-8 Plain Text
Duration : 1 h 50 min
Bit rate : 66 b/s
Count of elements : 1244
Stream size : 53.7 KiB (0%)
Title : Croatian
Language : Croatian
Default : No
Forced : No

Text #9
ID : 12
Format : UTF-8
Codec ID : S_TEXT/UTF8
Codec ID/Info : UTF-8 Plain Text
Duration : 1 h 50 min
Bit rate : 70 b/s
Count of elements : 1242
Stream size : 56.8 KiB (0%)
Title : Czech
Language : Czech
Default : No
Forced : No

Text #10
ID : 13
Format : UTF-8
Codec ID : S_TEXT/UTF8
Codec ID/Info : UTF-8 Plain Text
Duration : 1 h 50 min
Bit rate : 73 b/s
Count of elements : 1104
Stream size : 59.0 KiB (0%)
Title : Danish
Language : Danish
Default : No
Forced : No

Schumacher Screenshots:

Schumacher

Schumacher

Schumacher

Download 1080p – 5.66GB

Download 720p – 3.72GB

For All Dual Audio Movies Click Here

Facebook Comments Box
Schumacher 2021 NF WEB-DL
Schumacher 2021 NF WEB-DL