0
1 Star2 Stars3 Stars4 Stars5 Stars (No Ratings Yet)
Loading...

Shershaah 2021 AMZN WEB-DL

Shershaah

(2021) Action, Biography, Drama, History, War | 135min | August 12, 2021 (India) 8.8
Director: VishnuvardhanWriter: Sandeep ShrivastavaStars: Sidharth Malhotra, Kiara Advani, Shiv PandittSummary: Based on the life of Captain Vikram Batra who was an officer of the Indian Army, posthumously awarded with the Param Vir Chakra, India's highest and most prestigious award for valour, for his actions during the 1999 Kargil War in Kashmir between India and Pakistan.

Photos


See all photos >>

Shershaah 2021:Hindi Movies; goldmineshd.club;

Media-Info Shershaah

Shershaah 2021 Hindi 1080p AMZN WEB-DL DDP5.1 H264 ESub – WiKi-PiKi.mkv
Format : Matroska
Format version : Version 4
File size : 5.89 GiB
Duration : 2 h 15 min
Overall bit rate : 6 244 kb/s
Movie name : GoldminesHD.Club
Encoded date : UTC 2021-08-12 16:34:26
Writing application : mkvmerge v56.1.0 (‘My Friend’) 64-bit
Writing library : libebml v1.4.2 + libmatroska v1.6.4

Video
ID : 1
Format : AVC
Format/Info : Advanced Video Codec
Format profile : [email protected]
Format settings : CABAC / 4 Ref Frames
Format settings, CABAC : Yes
Format settings, Reference frames : 4 frames
Codec ID : V_MPEG4/ISO/AVC
Duration : 2 h 15 min
Bit rate : 5 729 kb/s
Width : 1 920 pixels
Height : 800 pixels
Display aspect ratio : 2.40:1
Frame rate mode : Constant
Frame rate : 24.000 FPS
Color space : YUV
Chroma subsampling : 4:2:0
Bit depth : 8 bits
Scan type : Progressive
Bits/(Pixel*Frame) : 0.155
Stream size : 5.41 GiB (92%)
Title : [email protected]
Default : Yes
Forced : No
Color range : Limited
Color primaries : BT.709
Transfer characteristics : BT.709
Matrix coefficients : BT.709

Audio
ID : 2
Format : E-AC-3
Format/Info : Enhanced AC-3
Commercial name : Dolby Digital Plus
Codec ID : A_EAC3
Duration : 2 h 15 min
Bit rate mode : Constant
Bit rate : 640 kb/s
Channel(s) : 6 channels
Channel layout : L R C LFE Ls Rs
Sampling rate : 48.0 kHz
Frame rate : 31.250 FPS (1536 SPF)
Compression mode : Lossy
Stream size : 644 MiB (8%)
Title : [email protected]
Language : Hindi
Service kind : Complete Main
Default : Yes
Forced : No

Text #1
ID : 3
Format : UTF-8
Codec ID : S_TEXT/UTF8
Codec ID/Info : UTF-8 Plain Text
Duration : 2 h 1 min
Bit rate : 60 b/s
Count of elements : 1894
Stream size : 53.8 KiB (0%)
Title : [email protected]
Language : English
Default : Yes
Forced : No

Text #2
ID : 4
Format : UTF-8
Codec ID : S_TEXT/UTF8
Codec ID/Info : UTF-8 Plain Text
Duration : 2 h 1 min
Bit rate : 60 b/s
Count of elements : 1892
Stream size : 53.7 KiB (0%)
Title : [email protected]
Language : English
Default : No
Forced : No

Screenshots:






















Download 1080p – 8.38GB

Download 1080p – 5.89GB

Download 1080p HEVC – 3.81GB

Download 2160p – 8.9GB

Download 720p – 2.33GB

Download 720p HEVC – 1.85GB

For All Hindi Movies Click Here

Facebook Comments Box

Duration:

Quality: WEB-DL

Release: