0
1 Star2 Stars3 Stars4 Stars5 Stars (No Ratings Yet)
Loading...

Shimmy 2021 AMZN WEB-DL

Shimmy

Shimmy is a 2021 Hindi Short Movie.Which is cast by scam 1992 Actor Prathik Gandhi.

Short, Romance | September 17, 2021 (India)

Shimmy

Media-Info Shimmy

Shimmy.2021.1080p.AMZN.WEB-DL.DDP2.0.H.264-Telly.mkv
Format : Matroska
Format version : Version 4
File size : 1.18 GiB
Duration : 23 min 17 s
Overall bit rate mode : Constant
Overall bit rate : 7 264 kb/s
Movie name : Telly
Encoded date : UTC 2021-09-17 05:29:13
Writing application : mkvmerge v59.0.0 (‘Shining Star’) 64-bit
Writing library : libebml v1.4.2 + libmatroska v1.6.4

Video
ID : 1
Format : AVC
Format/Info : Advanced Video Codec
Format profile : [email protected]
Format settings : CABAC / 4 Ref Frames
Format settings, CABAC : Yes
Format settings, Reference frames : 4 frames
Codec ID : V_MPEG4/ISO/AVC
Duration : 23 min 17 s
Bit rate mode : Constant
Bit rate : 7 039 kb/s
Nominal bit rate : 10 000 kb/s
Width : 1 920 pixels
Height : 1 080 pixels
Display aspect ratio : 16:9
Frame rate mode : Constant
Frame rate : 25.000 FPS
Color space : YUV
Chroma subsampling : 4:2:0
Bit depth : 8 bits
Scan type : Progressive
Bits/(Pixel*Frame) : 0.136
Stream size : 1.15 GiB (97%)
Default : Yes
Forced : No
Color range : Limited
Color primaries : BT.709
Transfer characteristics : BT.709
Matrix coefficients : BT.709

Audio
ID : 2
Format : E-AC-3
Format/Info : Enhanced AC-3
Commercial name : Dolby Digital Plus
Codec ID : A_EAC3
Duration : 23 min 17 s
Bit rate mode : Constant
Bit rate : 224 kb/s
Channel(s) : 2 channels
Channel layout : L R
Sampling rate : 48.0 kHz
Frame rate : 31.250 FPS (1536 SPF)
Compression mode : Lossy
Stream size : 37.3 MiB (3%)
Title : Hindi
Language : Hindi
Service kind : Complete Main
Default : No
Forced : No

Shimmy Screenshots:

Shimmy

Shimmy

Shimmy

Shimmy

Download 1080p – 1.18GB

Download 1080p HEVC – 609MB

Download 720p – 540MB

Download 720p HEVC – 302MB

For All Hindi Movies Click Here

Facebook Comments Box

Views: 33

Genre: Romance

Director:

Actors:

Country:

Duration:

Quality: WEB-DL

Release: