0
1 Star2 Stars3 Stars4 Stars5 Stars (No Ratings Yet)
Loading...

Shudhu Tomari Jonyo 2015 AMZN WEB-DL

Shudhu Tomari Jonyo

Drama, Romance | 149min | October 16, 2015 (India) 6.7
Director: Birsa DasguptaWriter: Birsa DasguptaStars: Dev, Srabanti Chatterjee, Soham ChakrabortySummary: Adi (Dev) and Nayantara (Srabanti) get married to please their respective families. But both are stuck in their past. Nayan still thinks of Shiraj (Soham), who deserts her on the day of their wedding. Adi, too, finds it difficult to reconcile with the death of his girlfriend, Koli. Can they stay together? —Sohom Pramanick

Photos


See all photos >>

Shudhu Tomari Jonyo

Media-Info Shudhu Tomari Jonyo

Shudhu Tomari Jonyo 2015 Bengali 1080p AMZN WEB-DL DDP2.0 H264 – WiKi-PiKi.mkv
Format : Matroska
Format version : Version 4
File size : 12.5 GiB
Duration : 2 h 28 min
Overall bit rate : 12.1 Mb/s
Movie name : GoldminesHD.Club
Encoded date : UTC 2021-10-03 12:44:09
Writing application : mkvmerge v56.1.0 (‘My Friend’) 64-bit
Writing library : libebml v1.4.2 + libmatroska v1.6.4

Video
ID : 1
Format : AVC
Format/Info : Advanced Video Codec
Format profile : [email protected]
Format settings : CABAC / 4 Ref Frames
Format settings, CABAC : Yes
Format settings, Reference frames : 4 frames
Codec ID : V_MPEG4/ISO/AVC
Duration : 2 h 28 min
Bit rate : 11.9 Mb/s
Width : 1 920 pixels
Height : 816 pixels
Display aspect ratio : 2.35:1
Frame rate mode : Constant
Frame rate : 24.000 FPS
Color space : YUV
Chroma subsampling : 4:2:0
Bit depth : 8 bits
Scan type : Progressive
Bits/(Pixel*Frame) : 0.316
Stream size : 12.3 GiB (98%)
Title : [email protected]
Default : Yes
Forced : No
Color range : Limited
Color primaries : BT.709
Transfer characteristics : BT.709
Matrix coefficients : BT.709

Audio
ID : 2
Format : E-AC-3
Format/Info : Enhanced AC-3
Commercial name : Dolby Digital Plus
Codec ID : A_EAC3
Duration : 2 h 28 min
Bit rate mode : Constant
Bit rate : 224 kb/s
Channel(s) : 2 channels
Channel layout : L R
Sampling rate : 48.0 kHz
Frame rate : 31.250 FPS (1536 SPF)
Compression mode : Lossy
Delay relative to video : -83 ms
Stream size : 238 MiB (2%)
Title : [email protected]
Language : Bengali
Service kind : Complete Main
Default : Yes
Forced : No

Shudhu Tomari Jonyo Screenshots:




















Download 1080p – 12.54GB

For All Bengali Movies Click Here

Facebook Comments Box

Duration: 149 min

Quality: WEB-DL

Release:

IMDb: 6.7

Shudhu Tomari Jonyo 2015 AMZN WEB-DL
Shudhu Tomari Jonyo 2015 AMZN WEB-DL