0
1 Star2 Stars3 Stars4 Stars5 Stars (No Ratings Yet)
Loading...

Shutter 2017 AMZN WEB-DL

Shutter

Shutter 2017 AMZN WEB-DL

Shutter

Media-Info Shutter

Shutter.2017.1080p.AMZN.WEB-DL.DDP5.1.HEVC-Telly.mkv
Format : Matroska
Format version : Version 4
File size : 3.59 GiB
Duration : 2 h 2 min
Overall bit rate : 4 216 kb/s
Movie name : Telly
Encoded date : UTC 2021-10-02 08:56:10
Writing application : mkvmerge v59.0.0 (‘Shining Star’) 64-bit
Writing library : libebml v1.4.2 + libmatroska v1.6.4

Video
ID : 1
Format : HEVC
Format/Info : High Efficiency Video Coding
Format profile : [email protected]@Main
Codec ID : V_MPEGH/ISO/HEVC
Duration : 2 h 2 min
Bit rate : 3 574 kb/s
Width : 1 920 pixels
Height : 816 pixels
Display aspect ratio : 2.35:1
Frame rate mode : Constant
Frame rate : 24.000 FPS
Standard : NTSC
Color space : YUV
Chroma subsampling : 4:2:0
Bit depth : 8 bits
Bits/(Pixel*Frame) : 0.095
Stream size : 3.05 GiB (85%)
Default : Yes
Forced : No
Color range : Limited
Color primaries : BT.709
Transfer characteristics : BT.709
Matrix coefficients : BT.709

Audio
ID : 2
Format : E-AC-3
Format/Info : Enhanced AC-3
Commercial name : Dolby Digital Plus
Codec ID : A_EAC3
Duration : 2 h 2 min
Bit rate mode : Constant
Bit rate : 640 kb/s
Channel(s) : 6 channels
Channel layout : L R C LFE Ls Rs
Sampling rate : 48.0 kHz
Frame rate : 31.250 FPS (1536 SPF)
Compression mode : Lossy
Stream size : 559 MiB (15%)
Title : Marathi
Language : Marathi
Service kind : Complete Main
Default : No
Forced : No

Text #1
ID : 3
Format : UTF-8
Codec ID : S_TEXT/UTF8
Codec ID/Info : UTF-8 Plain Text
Duration : 2 h 0 min
Bit rate : 52 b/s
Count of elements : 1580
Stream size : 46.5 KiB (0%)
Title : English (india) [SDH]
Language : English
Default : No
Forced : No

Text #2
ID : 4
Format : UTF-8
Codec ID : S_TEXT/UTF8
Codec ID/Info : UTF-8 Plain Text
Duration : 2 h 0 min
Bit rate : 51 b/s
Count of elements : 1529
Stream size : 45.4 KiB (0%)
Title : English (india)
Language : English
Default : No
Forced : No

Shutter Screenshots:

Shutter

Shutter

Shutter

Download 1080p HEVC – 3.59GB

Download 720p – 4.15GB

Download 720p HEVC – 1.46GB

For All Marathi Movies Click Here

Facebook Comments Box

Views: 38

Genre: Marathi Movies

Duration: