0
1 Star2 Stars3 Stars4 Stars5 Stars (No Ratings Yet)
Loading...

Snake Eyes: G.I. Joe Origins 2021 AMZN WEB-DL

Snake Eyes: G.I.Joe Origins

G.I. JOE: Xà Nhãn Báo Thù (2021) Action, Adventure, Fantasy, Sci-Fi, Thriller | 121min | July 23, 2021 (United States) 5.7
Director: Robert SchwentkeWriter: Evan Spiliotopoulos, Joe Shrapnel, Anna WaterhouseStars: Henry Golding, Andrew Koji, Haruka AbeSummary: A G.I. Joe spin-off centered around the character of Snake Eyes.

Photos


See all photos >>

Snake Eyes: G.I.Joe Origins 2021:Hollywood Movies; goldmineshd.club;

Media-Info Snake Eyes: G.I.Joe Origins

Snake Eyes G.I. JOE Origins.2021.1080p.GPLAY.WEB-DL.HIN-Multi.DDP5.1.x264-Telly.mkv
Format : Matroska
Format version : Version 4
File size : 5.91 GiB
Duration : 2 h 1 min
Overall bit rate : 6 971 kb/s
Encoded date : UTC 2021-09-29 05:54:37
Writing application : mkvmerge v59.0.0 (‘Shining Star’) 64-bit
Writing library : libebml v1.4.2 + libmatroska v1.6.4

Video
ID : 1
Format : AVC
Format/Info : Advanced Video Codec
Format profile : [email protected]
Format settings : CABAC / 2 Ref Frames
Format settings, CABAC : Yes
Format settings, Reference frames : 2 frames
Codec ID : V_MPEG4/ISO/AVC
Duration : 2 h 1 min
Bit rate : 5 048 kb/s
Width : 1 920 pixels
Height : 1 080 pixels
Display aspect ratio : 16:9
Frame rate mode : Constant
Frame rate : 23.976 (24000/1001) FPS
Color space : YUV
Chroma subsampling : 4:2:0
Bit depth : 8 bits
Scan type : Progressive
Bits/(Pixel*Frame) : 0.102
Stream size : 4.28 GiB (72%)
Writing library : x264 core 155 r2901 7d0ff22
Default : Yes
Forced : No
Color range : Limited
Color primaries : BT.709
Transfer characteristics : BT.709
Matrix coefficients : BT.709

Audio #1
ID : 2
Format : E-AC-3
Format/Info : Enhanced AC-3
Commercial name : Dolby Digital Plus
Codec ID : A_EAC3
Duration : 2 h 1 min
Bit rate mode : Constant
Bit rate : 384 kb/s
Channel(s) : 6 channels
Channel layout : L R C LFE Ls Rs
Sampling rate : 48.0 kHz
Frame rate : 31.250 FPS (1536 SPF)
Compression mode : Lossy
Stream size : 334 MiB (6%)
Title : English
Language : English
Service kind : Complete Main
Default : No
Forced : No

Audio #2
ID : 3
Format : E-AC-3
Format/Info : Enhanced AC-3
Commercial name : Dolby Digital Plus
Codec ID : A_EAC3
Duration : 2 h 1 min
Bit rate mode : Constant
Bit rate : 384 kb/s
Channel(s) : 6 channels
Channel layout : L R C LFE Ls Rs
Sampling rate : 48.0 kHz
Frame rate : 31.250 FPS (1536 SPF)
Compression mode : Lossy
Stream size : 334 MiB (6%)
Title : French
Language : French
Service kind : Complete Main
Default : No
Forced : No

Audio #3
ID : 4
Format : E-AC-3
Format/Info : Enhanced AC-3
Commercial name : Dolby Digital Plus
Codec ID : A_EAC3
Duration : 2 h 1 min
Bit rate mode : Constant
Bit rate : 384 kb/s
Channel(s) : 6 channels
Channel layout : L R C LFE Ls Rs
Sampling rate : 48.0 kHz
Frame rate : 31.250 FPS (1536 SPF)
Compression mode : Lossy
Stream size : 334 MiB (6%)
Title : Hindi
Language : Hindi
Service kind : Complete Main
Default : No
Forced : No

Audio #4
ID : 5
Format : E-AC-3
Format/Info : Enhanced AC-3
Commercial name : Dolby Digital Plus
Codec ID : A_EAC3
Duration : 2 h 1 min
Bit rate mode : Constant
Bit rate : 384 kb/s
Channel(s) : 6 channels
Channel layout : L R C LFE Ls Rs
Sampling rate : 48.0 kHz
Frame rate : 31.250 FPS (1536 SPF)
Compression mode : Lossy
Stream size : 334 MiB (6%)
Title : Tamil
Language : Tamil
Service kind : Complete Main
Default : No
Forced : No

Audio #5
ID : 6
Format : E-AC-3
Format/Info : Enhanced AC-3
Commercial name : Dolby Digital Plus
Codec ID : A_EAC3
Duration : 2 h 1 min
Bit rate mode : Constant
Bit rate : 384 kb/s
Channel(s) : 6 channels
Channel layout : L R C LFE Ls Rs
Sampling rate : 48.0 kHz
Frame rate : 31.250 FPS (1536 SPF)
Compression mode : Lossy
Stream size : 334 MiB (6%)
Title : Telugu
Language : Telugu
Service kind : Complete Main
Default : No
Forced : No

Text
ID : 7
Format : UTF-8
Codec ID : S_TEXT/UTF8
Codec ID/Info : UTF-8 Plain Text
Duration : 1 h 59 min
Bit rate : 25 b/s
Count of elements : 785
Stream size : 22.5 KiB (0%)
Title : French
Language : French
Default : No
Forced : No

Snake Eyes Screenshots:

Snake Eyes: G.I.Joe Origins 2021:Hollywood Movies; goldmineshd.club;

Snake Eyes: G.I.Joe Origins 2021:Hollywood Movies; goldmineshd.club;

Snake Eyes: G.I.Joe Origins 2021:Hollywood Movies; goldmineshd.club;

Snake Eyes: G.I.Joe Origins 2021:Hollywood Movies; goldmineshd.club;

English Audio Download Link:

Download 1080p – 6.15GB

 Download 1080p HEVC – 3.55GB

Download 720p – 1.78GB

Download 720p HEVC – 1.35GB

Download 2160p – 6.42GB

Download 2160p HDR – 13.2GB

Hindi Multi DDP5.1 Download Link:

Download 1080p – 5.91GB

For All English Movies Click Here

Facebook Comments Box
Snake Eyes: G.I. Joe Origins 2021 AMZN WEB-DL
Snake Eyes: G.I. Joe Origins 2021 AMZN WEB-DL
Snake Eyes: G.I. Joe Origins 2021 AMZN WEB-DL