0
1 Star2 Stars3 Stars4 Stars5 Stars (No Ratings Yet)
Loading...

SOS Kollkata 2020

SOS Kollkata

The movie is about a team of ATS officers fighting against terrorists in various situations. Danger comes when the terrorists attack in a Hotel.

Action, Crime, Thriller | 116min | October 21, 2020 (India) 7.1
Director: Anshuman PratyushWriter: Rohit Dey, Soumya NandyStars: Mimi Chakraborty, Nusrat Jahan, Yash DasguptaSummary: The movie is about a team of ATS officers fighting against terrorists in various situations. Danger comes when the terrorists attack in a Hotel.

Photos


See all photos >>

SOS Kollkata

Media-Info SOS Kollkata

SOS.Kolkata.2021.1080p.ZEE5.WEB-DL.AAC2.0.H.264-Telly.mkv
Format : Matroska
Format version : Version 4
File size : 1.80 GiB
Duration : 1 h 48 min
Overall bit rate mode : Variable
Overall bit rate : 2 372 kb/s
Encoded date : UTC 2021-09-30 19:01:50
Writing application : mkvmerge v11.0.0 (‘Alive’) 64bit
Writing library : libebml v1.3.4 + libmatroska v1.4.5

Video
ID : 1
Format : AVC
Format/Info : Advanced Video Codec
Format profile : [email protected]
Format settings : CABAC / 4 Ref Frames
Format settings, CABAC : Yes
Format settings, Reference frames : 4 frames
Codec ID : V_MPEG4/ISO/AVC
Duration : 1 h 48 min
Bit rate mode : Variable
Bit rate : 2 306 kb/s
Maximum bit rate : 6 500 kb/s
Width : 1 920 pixels
Height : 1 080 pixels
Display aspect ratio : 16:9
Frame rate mode : Constant
Frame rate : 25.000 FPS
Color space : YUV
Chroma subsampling : 4:2:0
Bit depth : 8 bits
Scan type : Progressive
Bits/(Pixel*Frame) : 0.044
Stream size : 1.75 GiB (97%)
Default : Yes
Forced : No
Color range : Limited
Color primaries : BT.709
Transfer characteristics : BT.709
Matrix coefficients : BT.709

Audio
ID : 2
Format : AAC LC
Format/Info : Advanced Audio Codec Low Complexity
Codec ID : A_AAC-2
Duration : 1 h 48 min
Bit rate : 64.0 kb/s
Channel(s) : 2 channels
Channel layout : L R
Sampling rate : 48.0 kHz
Frame rate : 46.875 FPS (1024 SPF)
Compression mode : Lossy
Stream size : 49.8 MiB (3%)
Language : Bengali
Default : Yes
Forced : No

SOS Kollkata Screenshots:

SOS Kollkata

SOS Kollkata

SOS Kollkata

SOS Kollkata

Download 1080p – 1.8GB

For All Bengali Movies Click Here

Facebook Comments Box

Duration: 116 min

Quality: WEB-DL

Release:

IMDb: 7.1