0
1 Star2 Stars3 Stars4 Stars5 Stars (No Ratings Yet)
Loading...

Sounds Like Love 2021 NF WEB-DL

Sounds Like Love

We Were Songs Comedy, Music, Romance | 110min | September 29, 2021 (United States) 5.4
Director: Juana MacíasWriter: Elísabet Benavent, Laura Sarmiento PallarésStars: María Valverde, Álex González, Elisabet CasanovasSummary: Maca (María Valverde), 30 years old and clumsy by nature, makes the most of life and strives to be happy. Maca's talent is wasted working as an assistant for an oppressive and terrifying fashion influencer and she spends her time with guys with whom she never manages to establish an emotional bond. Together with Jimena (Elísabet Casanovas) and Adriana (Susana Abaitúa), her two unique and lovable friends who are always ready to do whatever it takes to make their problems not seem so bad, Maca has managed to make Madrid a city where everything is possible. Everything seems to be going well until he-who-must-not-be-named comes back into her life. Leo (Alex González), the love and biggest mistake of her life, the man who tore her heart apart, obliterated her self-esteem and her faith in men, comes back into her life to turn everything upside down. Maca has tried to forget him, but now she has to accept that he has returned and face the emotions she has locked away to deal with the unforgettable memory of what could have been and never was. Old wounds are reopened and Maca will have to be brave and confront her conflicts, fears and insecurities in order to finally take control of her life. —Netflix

Photos


See all photos >>

Sounds Like Love

Media-Info Sounds Like Love

Sounds.Like.Love.2021.1080p.NF.WEB-DL.DD+5.1.x264-Telly.mkv
Format : Matroska
Format version : Version 4
File size : 3.16 GiB
Duration : 1 h 51 min
Overall bit rate mode : Variable
Overall bit rate : 4 069 kb/s
Movie name : Telly
Encoded date : UTC 2021-09-29 07:23:26
Writing application : mkvmerge v59.0.0 (‘Shining Star’) 64-bit
Writing library : libebml v1.4.2 + libmatroska v1.6.4

Video
ID : 1
Format : AVC
Format/Info : Advanced Video Codec
Format profile : [email protected]
Format settings : CABAC / 3 Ref Frames
Format settings, CABAC : Yes
Format settings, Reference frames : 3 frames
Codec ID : V_MPEG4/ISO/AVC
Duration : 1 h 51 min
Bit rate mode : Variable
Bit rate : 2 782 kb/s
Nominal bit rate : 3 160 kb/s
Maximum bit rate : 4 740 kb/s
Width : 1 920 pixels
Height : 1 080 pixels
Display aspect ratio : 16:9
Frame rate mode : Constant
Frame rate : 24.000 FPS
Color space : YUV
Chroma subsampling : 4:2:0
Bit depth : 8 bits
Scan type : Progressive
Bits/(Pixel*Frame) : 0.056
Stream size : 2.16 GiB (68%)
Writing library : x264 core 148 r2724 dbe0335
Encoding settings : cabac=1 / ref=3 / deblock=1:0:0 / analyse=0x1:0x111 / me=umh / subme=10 / psy=1 / psy_rd=1.00:0.00 / mixed_ref=1 / me_range=24 / chroma_me=1 / trellis=2 / 8x8dct=0 / cqm=0 / deadzone=21,11 / fast_pskip=1 / chroma_qp_offset=-2 / threads=8 / lookahead_threads=1 / sliced_threads=0 / nr=0 / decimate=1 / interlaced=0 / bluray_compat=0 / stitchable=1 / constrained_intra=0 / bframes=2 / b_pyramid=0 / b_adapt=2 / b_bias=0 / direct=3 / weightb=1 / open_gop=0 / weightp=2 / keyint=250 / keyint_min=24 / scenecut=0 / intra_refresh=0 / rc_lookahead=48 / rc=2pass / mbtree=1 / bitrate=3160 / ratetol=1.0 / qcomp=0.50 / qpmin=6 / qpmax=51 / qpstep=4 / cplxblur=20.0 / qblur=0.5 / vbv_maxrate=4740 / vbv_bufsize=6320 / nal_hrd=vbr / filler=0 / ip_ratio=1.40 / aq=1:1.00
Default : Yes
Forced : No

Audio #1
ID : 2
Format : E-AC-3
Format/Info : Enhanced AC-3
Commercial name : Dolby Digital Plus
Codec ID : A_EAC3
Duration : 1 h 51 min
Bit rate mode : Constant
Bit rate : 640 kb/s
Channel(s) : 6 channels
Channel layout : L R C LFE Ls Rs
Sampling rate : 48.0 kHz
Frame rate : 31.250 FPS (1536 SPF)
Compression mode : Lossy
Stream size : 509 MiB (16%)
Title : Hindi
Language : Hindi
Service kind : Complete Main
Default : Yes
Forced : No

Audio #2
ID : 3
Format : E-AC-3
Format/Info : Enhanced AC-3
Commercial name : Dolby Digital Plus
Codec ID : A_EAC3
Duration : 1 h 51 min
Bit rate mode : Constant
Bit rate : 640 kb/s
Channel(s) : 6 channels
Channel layout : L R C LFE Ls Rs
Sampling rate : 48.0 kHz
Frame rate : 31.250 FPS (1536 SPF)
Compression mode : Lossy
Stream size : 509 MiB (16%)
Title : English
Language : English
Service kind : Complete Main
Default : No
Forced : No

Text #1
ID : 4
Format : UTF-8
Codec ID : S_TEXT/UTF8
Codec ID/Info : UTF-8 Plain Text
Duration : 1 h 45 min
Bit rate : 68 b/s
Count of elements : 1554
Stream size : 53.0 KiB (0%)
Title : English
Language : English
Default : No
Forced : No

Text #2
ID : 5
Format : UTF-8
Codec ID : S_TEXT/UTF8
Codec ID/Info : UTF-8 Plain Text
Duration : 1 h 45 min
Bit rate : 68 b/s
Count of elements : 1554
Stream size : 53.0 KiB (0%)
Title : English
Language : English
Default : No
Forced : No

Text #3
ID : 6
Format : UTF-8
Codec ID : S_TEXT/UTF8
Codec ID/Info : UTF-8 Plain Text
Duration : 1 h 49 min
Bit rate : 105 b/s
Count of elements : 1362
Stream size : 84.9 KiB (0%)
Title : Arabic
Language : Arabic
Default : No
Forced : No

Text #4
ID : 7
Format : UTF-8
Codec ID : S_TEXT/UTF8
Codec ID/Info : UTF-8 Plain Text
Duration : 1 h 49 min
Bit rate : 64 b/s
Count of elements : 1516
Stream size : 52.0 KiB (0%)
Title : Chinese Simplified
Language : Chinese
Default : No
Forced : No

Text #5
ID : 8
Format : UTF-8
Codec ID : S_TEXT/UTF8
Codec ID/Info : UTF-8 Plain Text
Duration : 1 h 49 min
Bit rate : 59 b/s
Count of elements : 1548
Stream size : 48.1 KiB (0%)
Title : Chinese Traditional
Language : Chinese
Default : No
Forced : No

Text #6
ID : 9
Format : UTF-8
Codec ID : S_TEXT/UTF8
Codec ID/Info : UTF-8 Plain Text
Duration : 1 h 49 min
Bit rate : 52 b/s
Count of elements : 1396
Stream size : 42.2 KiB (0%)
Title : Croatian
Language : Croatian
Default : No
Forced : No

Text #7
ID : 10
Format : UTF-8
Codec ID : S_TEXT/UTF8
Codec ID/Info : UTF-8 Plain Text
Duration : 1 h 49 min
Bit rate : 58 b/s
Count of elements : 1335
Stream size : 47.0 KiB (0%)
Title : Czech
Language : Czech
Default : No
Forced : No

Text #8
ID : 11
Format : UTF-8
Codec ID : S_TEXT/UTF8
Codec ID/Info : UTF-8 Plain Text
Duration : 1 h 49 min
Bit rate : 61 b/s
Count of elements : 1364
Stream size : 49.4 KiB (0%)
Title : Danish
Language : Danish
Default : No
Forced : No

Text #9
ID : 12
Format : UTF-8
Codec ID : S_TEXT/UTF8
Codec ID/Info : UTF-8 Plain Text
Duration : 1 h 49 min
Bit rate : 55 b/s
Count of elements : 1252
Stream size : 45.0 KiB (0%)
Title : Dutch
Language : Dutch
Default : No
Forced : No

Sounds Like Love

Text #10
ID : 13
Format : UTF-8
Codec ID : S_TEXT/UTF8
Codec ID/Info : UTF-8 Plain Text
Duration : 1 h 49 min
Bit rate : 56 b/s
Count of elements : 1312
Stream size : 45.7 KiB (0%)
Title : Finnish
Language : Finnish
Default : No
Forced : No

Text #11
ID : 14
Format : UTF-8
Codec ID : S_TEXT/UTF8
Codec ID/Info : UTF-8 Plain Text
Duration : 1 h 49 min
Bit rate : 58 b/s
Count of elements : 1328
Stream size : 46.9 KiB (0%)
Title : French
Language : French
Default : No
Forced : No

Text #12
ID : 15
Format : UTF-8
Codec ID : S_TEXT/UTF8
Codec ID/Info : UTF-8 Plain Text
Duration : 1 h 49 min
Bit rate : 54 b/s
Count of elements : 1443
Stream size : 43.7 KiB (0%)
Title : German
Language : German
Default : No
Forced : No

Text #13
ID : 16
Format : UTF-8
Codec ID : S_TEXT/UTF8
Codec ID/Info : UTF-8 Plain Text
Duration : 1 h 49 min
Bit rate : 96 b/s
Count of elements : 1364
Stream size : 77.5 KiB (0%)
Title : Greek
Language : Greek
Default : No
Forced : No

Text #14
ID : 17
Format : UTF-8
Codec ID : S_TEXT/UTF8
Codec ID/Info : UTF-8 Plain Text
Duration : 1 h 49 min
Bit rate : 94 b/s
Count of elements : 1363
Stream size : 76.0 KiB (0%)
Title : Hebrew
Language : Hebrew
Default : No
Forced : No

Sounds Like Love Screenshots:

Sounds Like Love

Sounds Like Love

Sounds Like Love

Sounds Like Love

Download 1080p – 3.16GB

Download 1080p HDR HEVC – 4.8GB

Download 720p – 2.27GB

For All Dual Audio Movies Click Here

Facebook Comments Box

Duration: 110 min

Quality: WEB-DL

Release:

IMDb: N/A

Sounds Like Love 2021 NF WEB-DL
Sounds Like Love 2021 NF WEB-DL
Sounds Like Love 2021 NF WEB-DL