0
1 Star2 Stars3 Stars4 Stars5 Stars (No Ratings Yet)
Loading...

Star vs. Food 2021 S2 AMZN WEB-DL

Star vs Food

Reality-TV | April 15, 2021 (India) 2.3
Stars: Malaika Arora, Pratik Gandhi, Karan JoharSummary: Bollywood celebs and chefs rustle up a special meal for close friends and family.

Star vs Food

Media-Info Star vs Food

Star.vs.Food.S02E01.Janhvi.Kapoor.1080p.AMZN.WEB-DL.DD+2.0.H.264-Telly.mkv
Format : Matroska
Format version : Version 4
File size : 2.06 GiB
Duration : 29 min 25 s
Overall bit rate : 10.0 Mb/s
Encoded date : UTC 2021-09-25 18:47:48
Writing application : mkvmerge v61.0.0 (‘So’) 64-bit
Writing library : libebml v1.4.2 + libmatroska v1.6.4

Video
ID : 1
Format : AVC
Format/Info : Advanced Video Codec
Format profile : [email protected]
Format settings : CABAC / 4 Ref Frames
Format settings, CABAC : Yes
Format settings, Reference frames : 4 frames
Codec ID : V_MPEG4/ISO/AVC
Duration : 29 min 25 s
Bit rate mode : Constant
Bit rate : 9 114 kb/s
Nominal bit rate : 10 000 kb/s
Width : 1 920 pixels
Height : 1 080 pixels
Display aspect ratio : 16:9
Frame rate mode : Constant
Frame rate : 25.000 FPS
Color space : YUV
Chroma subsampling : 4:2:0
Bit depth : 8 bits
Scan type : Progressive
Bits/(Pixel*Frame) : 0.176
Stream size : 1.87 GiB (91%)
Default : Yes
Forced : No
Color range : Limited
Color primaries : BT.709
Transfer characteristics : BT.709
Matrix coefficients : BT.709

Audio #1
ID : 2
Format : E-AC-3
Format/Info : Enhanced AC-3
Commercial name : Dolby Digital Plus
Codec ID : A_EAC3
Duration : 29 min 25 s
Bit rate mode : Constant
Bit rate : 224 kb/s
Channel(s) : 2 channels
Channel layout : L R
Sampling rate : 48.0 kHz
Frame rate : 31.250 FPS (1536 SPF)
Compression mode : Lossy
Stream size : 47.1 MiB (2%)
Title : English
Language : English
Service kind : Complete Main
Default : No
Forced : No

Audio #2
ID : 3
Format : E-AC-3
Format/Info : Enhanced AC-3
Commercial name : Dolby Digital Plus
Codec ID : A_EAC3
Duration : 29 min 25 s
Bit rate mode : Constant
Bit rate : 224 kb/s
Channel(s) : 2 channels
Channel layout : L R
Sampling rate : 48.0 kHz
Frame rate : 31.250 FPS (1536 SPF)
Compression mode : Lossy
Stream size : 47.1 MiB (2%)
Title : Hindi
Language : Hindi
Service kind : Complete Main
Default : No
Forced : No

Audio #3
ID : 4
Format : E-AC-3
Format/Info : Enhanced AC-3
Commercial name : Dolby Digital Plus
Codec ID : A_EAC3
Duration : 29 min 25 s
Bit rate mode : Constant
Bit rate : 224 kb/s
Channel(s) : 2 channels
Channel layout : L R
Sampling rate : 48.0 kHz
Frame rate : 31.250 FPS (1536 SPF)
Compression mode : Lossy
Stream size : 47.1 MiB (2%)
Title : Tamil
Language : Tamil
Service kind : Complete Main
Default : No
Forced : No

Audio #4
ID : 5
Format : E-AC-3
Format/Info : Enhanced AC-3
Commercial name : Dolby Digital Plus
Codec ID : A_EAC3
Duration : 29 min 25 s
Bit rate mode : Constant
Bit rate : 224 kb/s
Channel(s) : 2 channels
Channel layout : L R
Sampling rate : 48.0 kHz
Frame rate : 31.250 FPS (1536 SPF)
Compression mode : Lossy
Stream size : 47.1 MiB (2%)
Title : Telugu
Language : Telugu
Service kind : Complete Main
Default : No
Forced : No

Text
ID : 6
Format : UTF-8
Codec ID : S_TEXT/UTF8
Codec ID/Info : UTF-8 Plain Text
Duration : 28 min 39 s
Bit rate : 108 b/s
Count of elements : 629
Stream size : 22.8 KiB (0%)
Title : English
Language : English
Default : No
Forced : No

Star vs Food Screenshots:

Star vs Food

Star vs Food

Star vs Food

AMZN WEB-DL

Download S02 EP – 01 1080p – 2.06GB

Download S02 EP – 02 1080p – 1.91GB

Download S02 EP – 03 1080p – 1.66GB

Download S02 EP – 04 1080p – 1.86GB

Download S02 EP – 05 1080p – 1.86GB

For All Webseries Click Here

Facebook Comments Box

Views: 321

Genre: Uncategorized

Director:

Country:

Duration: N/A

Quality: WEB-DL

Release:

IMDb: 2.2