0
1 Star2 Stars3 Stars4 Stars5 Stars (No Ratings Yet)
Loading...

Sunny 2021 AMZN WEB-DL

Sunny

Drama, Musical | September 23, 2021 (United States)
Director: Ranjith SankarWriter: Ranjith SankarStars: Vijayaraghavan, Jayasurya, Mamta MohandasSummary: Sunny loses everything that he earned in his life. Shattered and hopeless, he smuggles himself back from Dubai to Kerala in midst of a global pandemic with his own secret plans.

Photos


See all photos >>

Sunny

Media-Info Sunny

Sunny.2021.1080p.AMZN.WEB-DL.DDP5.1.H.264-Telly.mkv
Format : Matroska
Format version : Version 4
File size : 4.73 GiB
Duration : 1 h 33 min
Overall bit rate : 7 260 kb/s
Movie name : Telly
Encoded date : UTC 2021-09-22 16:48:19
Writing application : mkvmerge v59.0.0 (‘Shining Star’) 64-bit
Writing library : libebml v1.4.2 + libmatroska v1.6.4

Video
ID : 1
Format : AVC
Format/Info : Advanced Video Codec
Format profile : [email protected]
Format settings : CABAC / 4 Ref Frames
Format settings, CABAC : Yes
Format settings, Reference frames : 4 frames
Codec ID : V_MPEG4/ISO/AVC
Duration : 1 h 33 min
Bit rate mode : Constant
Bit rate : 6 618 kb/s
Nominal bit rate : 10 000 kb/s
Width : 1 920 pixels
Height : 800 pixels
Display aspect ratio : 2.40:1
Frame rate mode : Constant
Frame rate : 24.000 FPS
Color space : YUV
Chroma subsampling : 4:2:0
Bit depth : 8 bits
Scan type : Progressive
Bits/(Pixel*Frame) : 0.180
Stream size : 4.31 GiB (91%)
Default : Yes
Forced : No
Color range : Limited
Color primaries : BT.709
Transfer characteristics : BT.709
Matrix coefficients : BT.709

Audio
ID : 2
Format : E-AC-3
Format/Info : Enhanced AC-3
Commercial name : Dolby Digital Plus
Codec ID : A_EAC3
Duration : 1 h 33 min
Bit rate mode : Constant
Bit rate : 640 kb/s
Channel(s) : 6 channels
Channel layout : L R C LFE Ls Rs
Sampling rate : 48.0 kHz
Frame rate : 31.250 FPS (1536 SPF)
Compression mode : Lossy
Stream size : 427 MiB (9%)
Title : Malayalam
Language : Malayalam
Service kind : Complete Main
Default : No
Forced : No

Text
ID : 3
Format : UTF-8
Codec ID : S_TEXT/UTF8
Codec ID/Info : UTF-8 Plain Text
Duration : 1 h 29 min
Bit rate : 42 b/s
Count of elements : 862
Stream size : 28.2 KiB (0%)
Title : English
Language : English
Default : No
Forced : No

Sunny Screenshots:

Sunny

Sunny

Sunny

Download 2160p – 4.48GB

Download 1080p – 4.73GB

Download 1080p HEVC – 1.68GB

Download 720p – 1.03GB

Download 720p HEVC – 869MB

For All Malayalam Movies Click Here

Facebook Comments Box

Views: 28

Genre: DramaMalayalam Movies

Director:

Actors: , , ,

Country:

Duration: N/A

Quality: WEB-DL

Release:

IMDb: N/A