0
1 Star2 Stars3 Stars4 Stars5 Stars (No Ratings Yet)
Loading...

Tara Mira 2019

Tara Mira

Drama | 120min | October 11, 2019 (United States) 7.2
Director: Rajiev DhingraWriter: Dheeraj RattanStars: Ranjit Bawa, Nazia Hussain, Gurpreet GhuggiSummary: Tara's father wants only the Jatt community to reside in Punjab but after Tara realizes that his lady love Mira is not the same cast, he requests Mira's family to pretend to be one.

Tara Mira

Media-Info Tara Mira

Tara.Mira.2019.1080p.Zee5.WEB-DL.AAC2.0.H.264-Telly.mkv
Format : Matroska
Format version : Version 4
File size : 2.23 GiB
Duration : 1 h 54 min
Overall bit rate mode : Variable
Overall bit rate : 2 793 kb/s
Movie name : Telly
Encoded date : UTC 2021-09-26 16:21:59
Writing application : mkvmerge v61.0.0 (‘So’) 64-bit
Writing library : libebml v1.4.2 + libmatroska v1.6.4

Video
ID : 1
Format : AVC
Format/Info : Advanced Video Codec
Format profile : [email protected]
Format settings : CABAC / 4 Ref Frames
Format settings, CABAC : Yes
Format settings, Reference frames : 4 frames
Format settings, GOP : M=4, N=50
Codec ID : V_MPEG4/ISO/AVC
Duration : 1 h 54 min
Bit rate mode : Variable
Bit rate : 2 727 kb/s
Maximum bit rate : 4 300 kb/s
Width : 1 920 pixels
Height : 1 080 pixels
Display aspect ratio : 16:9
Frame rate mode : Constant
Frame rate : 25.000 FPS
Color space : YUV
Chroma subsampling : 4:2:0
Bit depth : 8 bits
Scan type : Progressive
Bits/(Pixel*Frame) : 0.053
Stream size : 2.17 GiB (98%)
Default : Yes
Forced : No
Color range : Limited
Color primaries : BT.709
Transfer characteristics : BT.709
Matrix coefficients : BT.709

Audio
ID : 2
Format : AAC LC
Format/Info : Advanced Audio Codec Low Complexity
Codec ID : A_AAC-2
Duration : 1 h 54 min
Bit rate : 64.0 kb/s
Channel(s) : 2 channels
Channel layout : L R
Sampling rate : 48.0 kHz
Frame rate : 46.875 FPS (1024 SPF)
Compression mode : Lossy
Stream size : 52.2 MiB (2%)
Language : Punjabi
Default : Yes
Forced : No

Tara Mira Screenshots:

Tara Mira

Tara Mira

Tara Mira

Tara Mira

Tara Mira

Download 1080p – 2.23GB

For All Punjabi Movies Click Here

Facebook Comments Box

Views: 13

Genre: DramaPanjabi Movies

Director:

Actors: ,

Country:

Duration: 120 min

Quality: WEB-DL

Release:

IMDb: 7.3

Tara Mira 2019