0
1 Star2 Stars3 Stars4 Stars5 Stars (No Ratings Yet)
Loading...

Teraa Surroor 2016 AMZN WEB-DL ESub

Teraa Surroor

Guns n' Roses Action, Drama, Romance | 106min | March 11, 2016 (India) 2.6
Director: Shawn ArranhaWriter: Namrata Ramsay, Himesh ReshammiyaStars: Himesh Reshammiya, Farah Karimaee, Naseeruddin ShahSummary: Tara Wadia (Farah Karimaee), a singer and girlfriend of a gangster Raghu (Himesh Reshammiya) lives with her mother (Shernaz Patel). She goes to Dublin where she gets detained after being caught with drugs. Tara calls Raghua for help now Raghu must help her and find Anirudh Brahman, the stranger who met Tara on Facebook and invited her to Ireland. —J Rajput

Photos


See all photos >>

Teraa Surroor

Media-Info Teraa Surroor

Teraa Surroor 2016 Hindi 1080p AMZN WEB-DL DDP5.1 H264 ESub & BulgarianSub – WiKi-PiKi.mkv
Format : Matroska
Format version : Version 4
File size : 4.20 GiB
Duration : 1 h 39 min
Overall bit rate : 6 023 kb/s
Movie name : GoldminesHD.Club
Encoded date : UTC 2021-09-02 13:53:01
Writing application : mkvmerge v56.1.0 (‘My Friend’) 64-bit
Writing library : libebml v1.4.2 + libmatroska v1.6.4
Attachments : WiKi-PiKi.jpg

Video
ID : 1
Format : AVC
Format/Info : Advanced Video Codec
Format profile : [email protected]
Format settings : CABAC / 4 Ref Frames
Format settings, CABAC : Yes
Format settings, Reference frames : 4 frames
Codec ID : V_MPEG4/ISO/AVC
Duration : 1 h 39 min
Bit rate : 5 380 kb/s
Width : 1 920 pixels
Height : 816 pixels
Display aspect ratio : 2.35:1
Frame rate mode : Constant
Frame rate : 25.000 FPS
Color space : YUV
Chroma subsampling : 4:2:0
Bit depth : 8 bits
Scan type : Progressive
Bits/(Pixel*Frame) : 0.137
Stream size : 3.75 GiB (89%)
Title : [email protected]
Default : Yes
Forced : No
Color range : Limited
Color primaries : BT.709
Transfer characteristics : BT.709
Matrix coefficients : BT.709

Audio
ID : 2
Format : E-AC-3
Format/Info : Enhanced AC-3
Commercial name : Dolby Digital Plus
Codec ID : A_EAC3
Duration : 1 h 39 min
Bit rate mode : Constant
Bit rate : 640 kb/s
Channel(s) : 6 channels
Channel layout : L R C LFE Ls Rs
Sampling rate : 48.0 kHz
Frame rate : 31.250 FPS (1536 SPF)
Compression mode : Lossy
Delay relative to video : -80 ms
Stream size : 457 MiB (11%)
Title : [email protected]
Language : Hindi
Service kind : Complete Main
Default : Yes
Forced : No

Text #1
ID : 3
Format : UTF-8
Codec ID : S_TEXT/UTF8
Codec ID/Info : UTF-8 Plain Text
Duration : 1 h 35 min
Bit rate : 90 b/s
Count of elements : 1057
Stream size : 63.4 KiB (0%)
Title : [email protected]
Language : English
Default : Yes
Forced : No

Text #2
ID : 4
Format : UTF-8
Codec ID : S_TEXT/UTF8
Codec ID/Info : UTF-8 Plain Text
Duration : 1 h 30 min
Bit rate : 83 b/s
Count of elements : 973
Stream size : 55.3 KiB (0%)
Title : [email protected]
Language : Bulgarian
Default : No
Forced : No

Teraa Surroor Screenshots:
































Download 1080p – 4.2GB

For All Hindi Movies Click Here

Facebook Comments Box

Duration: 106 min

Quality: WEB-DL

Release:

IMDb: 2.6

Teraa Surroor 2016 AMZN WEB-DL ESub