0
1 Star2 Stars3 Stars4 Stars5 Stars (No Ratings Yet)
Loading...

Thalaivi 2021 NF WEB-DL

Thalaivi

Thalaivii Biography, Drama | 153min | September 10, 2021 (India) 5.9
Director: A.L. VijayWriter: Vijayendra Prasad, A.L. Vijay, Madhan KarkyStars: Kangana Ranaut, Arvind Swamy, NassarSummary: Thalaivi is an upcoming Indian multilingual biographical film about the life of J. Jayalalithaa, politician and film actress who served six terms as the Chief Minister of Tamil Nadu, with Kangana Ranaut playing the role of Jayalalithaa. The film is directed by A. L

Photos


See all photos >>

Thalaivi

Media-Info Thalaivi

Thalaivii.2021.1080p.NF.WEB-DL.DD+5.1.x264-Telly.mkv
Format : Matroska
Format version : Version 4
File size : 3.21 GiB
Duration : 2 h 28 min
Overall bit rate mode : Variable
Overall bit rate : 3 080 kb/s
Movie name : Telly
Encoded date : UTC 2021-09-24 18:41:51
Writing application : mkvmerge v59.0.0 (‘Shining Star’) 64-bit
Writing library : libebml v1.4.2 + libmatroska v1.6.4

Video
ID : 1
Format : AVC
Format/Info : Advanced Video Codec
Format profile : [email protected]
Format settings : CABAC / 3 Ref Frames
Format settings, CABAC : Yes
Format settings, Reference frames : 3 frames
Format settings, GOP : M=3, N=48
Codec ID : V_MPEG4/ISO/AVC
Duration : 2 h 28 min
Bit rate mode : Variable
Bit rate : 2 465 kb/s
Maximum bit rate : 5 475 kb/s
Width : 1 920 pixels
Height : 1 080 pixels
Display aspect ratio : 16:9
Frame rate mode : Constant
Frame rate : 24.000 FPS
Color space : YUV
Chroma subsampling : 4:2:0
Bit depth : 8 bits
Scan type : Progressive
Bits/(Pixel*Frame) : 0.050
Stream size : 2.54 GiB (79%)
Writing library : x264 core 148 r2724 dbe0335
Encoding settings : cabac=1 / ref=3 / deblock=1:0:0 / analyse=0x1:0x111 / me=umh / subme=10 / psy=1 / psy_rd=1.00:0.00 / mixed_ref=1 / me_range=24 / chroma_me=1 / trellis=2 / 8x8dct=0 / cqm=0 / deadzone=21,11 / fast_pskip=1 / chroma_qp_offset=-2 / threads=8 / lookahead_threads=1 / sliced_threads=0 / nr=0 / decimate=1 / interlaced=0 / bluray_compat=0 / stitchable=1 / constrained_intra=0 / bframes=2 / b_pyramid=0 / b_adapt=2 / b_bias=0 / direct=3 / weightb=1 / open_gop=0 / weightp=2 / keyint=250 / keyint_min=24 / scenecut=0 / intra_refresh=0 / rc_lookahead=48 / rc=2pass / mbtree=1 / bitrate=2465 / ratetol=1.0 / qcomp=0.50 / qpmin=6 / qpmax=51 / qpstep=4 / cplxblur=20.0 / qblur=0.5 / vbv_maxrate=5475 / vbv_bufsize=7300 / nal_hrd=vbr / filler=0 / ip_ratio=1.40 / aq=1:1.00
Default : Yes
Forced : No

Audio
ID : 2
Format : E-AC-3
Format/Info : Enhanced AC-3
Commercial name : Dolby Digital Plus
Codec ID : A_EAC3
Duration : 2 h 28 min
Bit rate mode : Constant
Bit rate : 640 kb/s
Channel(s) : 6 channels
Channel layout : L R C LFE Ls Rs
Sampling rate : 48.0 kHz
Frame rate : 31.250 FPS (1536 SPF)
Compression mode : Lossy
Stream size : 682 MiB (21%)
Title : Hindi
Language : Hindi
Service kind : Complete Main
Default : Yes
Forced : No

Text #1
ID : 3
Format : UTF-8
Codec ID : S_TEXT/UTF8
Codec ID/Info : UTF-8 Plain Text
Duration : 2 h 22 min
Bit rate : 55 b/s
Count of elements : 1785
Stream size : 57.9 KiB (0%)
Title : English
Language : English
Default : No
Forced : No

Text #2
ID : 4
Format : UTF-8
Codec ID : S_TEXT/UTF8
Codec ID/Info : UTF-8 Plain Text
Duration : 2 h 22 min
Bit rate : 55 b/s
Count of elements : 1785
Stream size : 57.9 KiB (0%)
Title : English
Language : English
Default : No
Forced : No

Thalaivi Screenshots:

Thalaivi

Thalaivi

Thalaivi

Thalaivi

Thalaivi

Download 1080p – 3.21GB

Download 720p – 2.21GB

For All Hindi Movies Click Here

Facebook Comments Box

Duration: 130 min

Quality: WEB-DL

Release:

IMDb: N/A

Thalaivi 2021 NF WEB-DL
Thalaivi 2021 NF WEB-DL
Thalaivi 2021 NF WEB-DL
Thalaivi 2021 NF WEB-DL
Thalaivi 2021 NF WEB-DL
Thalaivi 2021 NF WEB-DL
Thalaivi 2021 NF WEB-DL