0
1 Star2 Stars3 Stars4 Stars5 Stars (No Ratings Yet)
Loading...

The Outpost 2019 Hindi Multi

The Outpost

Tiền Đồn Action, Drama, History, War | 123min | July 3, 2020 (United States) 6.8
Director: Rod LurieWriter: Paul Tamasy, Eric Johnson, Jake TapperStars: Scott Eastwood, Caleb Landry Jones, Orlando BloomSummary: During the Afghanistan war, several outposts were placed to control the Taliban movement and their supply chain. Camp Keating, situated in a valley surrounded by mountains, was one them. While being shot at by the Talibans was business as usual, they tried to gain respect from local village elders and have them help stop these skirmishes. One day, when 400 Talibans rallied for a surprise attack, it was up to them to leverage the poor defenses and lack of ammo and manpower they had, to ultimately survive and go back to their loved ones. —heyitsnuel

Photos


See all photos >>

The Outpost

Media-Info The Outpost

The.Outpost.2020.1080p.BMS.WEB-DL.HIN-Multi.AAC2.0.x264-Telly.mkv
Format : Matroska
Format version : Version 4
File size : 5.19 GiB
Duration : 2 h 3 min
Overall bit rate : 6 028 kb/s
Movie name : Telly
Encoded date : UTC 2021-10-07 18:35:13
Writing application : mkvmerge v53.0.0 (‘Fool’s Gold’) 64-bit
Writing library : libebml v1.4.1 + libmatroska v1.6.2

Video
ID : 1
Format : AVC
Format/Info : Advanced Video Codec
Format profile : [email protected]
Format settings : CABAC / 4 Ref Frames
Format settings, CABAC : Yes
Format settings, ReFrames : 4 frames
Codec ID : V_MPEG4/ISO/AVC
Duration : 2 h 3 min
Bit rate : 5 000 kb/s
Width : 1 920 pixels
Height : 1 080 pixels
Display aspect ratio : 16:9
Frame rate mode : Constant
Frame rate : 24.000 FPS
Color space : YUV
Chroma subsampling : 4:2:0
Bit depth : 8 bits
Scan type : Progressive
Bits/(Pixel*Frame) : 0.100
Stream size : 4.30 GiB (83%)
Writing library : x264 core 161 r3048 b86ae3c
Encoding settings : cabac=1 / ref=2 / deblock=1:-1:-1 / analyse=0x1:0x111 / me=esa / subme=9 / psy=1 / psy_rd=1.00:0.15 / mixed_ref=1 / me_range=16 / chroma_me=1 / trellis=1 / 8x8dct=0 / cqm=0 / deadzone=21,11 / fast_pskip=1 / chroma_qp_offset=-3 / threads=18 / lookahead_threads=1 / sliced_threads=0 / nr=0 / decimate=1 / interlaced=0 / bluray_compat=0 / constrained_intra=0 / bframes=4 / b_pyramid=2 / b_adapt=1 / b_bias=0 / direct=1 / weightb=1 / open_gop=0 / weightp=2 / keyint=120 / keyint_min=61 / scenecut=0 / intra_refresh=0 / rc_lookahead=40 / rc=2pass / mbtree=1 / bitrate=5000 / ratetol=1.0 / qcomp=0.60 / qpmin=0 / qpmax=69 / qpstep=4 / cplxblur=20.0 / qblur=0.5 / ip_ratio=1.40 / aq=1:1.00
Default : Yes
Forced : No
Color range : Limited
Color primaries : BT.709
Transfer characteristics : BT.709
Matrix coefficients : BT.709

Audio #1
ID : 2
Format : AAC LC
Format/Info : Advanced Audio Codec Low Complexity
Codec ID : A_AAC-2
Duration : 2 h 3 min
Bit rate : 256 kb/s
Channel(s) : 2 channels
Channel layout : L R
Sampling rate : 44.1 kHz
Frame rate : 43.066 FPS (1024 SPF)
Compression mode : Lossy
Stream size : 226 MiB (4%)
Language : Tamil
Default : No
Forced : No

Audio #2
ID : 3
Format : AAC LC
Format/Info : Advanced Audio Codec Low Complexity
Codec ID : A_AAC-2
Duration : 2 h 3 min
Bit rate : 256 kb/s
Channel(s) : 2 channels
Channel layout : L R
Sampling rate : 44.1 kHz
Frame rate : 43.066 FPS (1024 SPF)
Compression mode : Lossy
Stream size : 226 MiB (4%)
Language : Hindi
Default : Yes
Forced : No

Audio #3
ID : 4
Format : AAC LC
Format/Info : Advanced Audio Codec Low Complexity
Codec ID : A_AAC-2
Duration : 2 h 3 min
Bit rate : 256 kb/s
Channel(s) : 2 channels
Channel layout : L R
Sampling rate : 48.0 kHz
Frame rate : 46.875 FPS (1024 SPF)
Compression mode : Lossy
Stream size : 226 MiB (4%)
Language : English
Default : No
Forced : No

Audio #4
ID : 5
Format : AAC LC
Format/Info : Advanced Audio Codec Low Complexity
Codec ID : A_AAC-2
Duration : 2 h 3 min
Bit rate : 256 kb/s
Channel(s) : 2 channels
Channel layout : L R
Sampling rate : 44.1 kHz
Frame rate : 43.066 FPS (1024 SPF)
Compression mode : Lossy
Stream size : 226 MiB (4%)
Language : Telugu
Default : No
Forced : No

Text #1
ID : 6
Format : UTF-8
Codec ID : S_TEXT/UTF8
Codec ID/Info : UTF-8 Plain Text
Duration : 2 h 1 min
Bit rate : 90 b/s
Count of elements : 2653
Stream size : 80.8 KiB (0%)
Language : English
Default : No
Forced : No

Text #2
ID : 7
Format : UTF-8
Codec ID : S_TEXT/UTF8
Codec ID/Info : UTF-8 Plain Text
Duration : 2 h 1 min
Bit rate : 90 b/s
Count of elements : 2653
Stream size : 80.8 KiB (0%)
Language : English
Default : No
Forced : No

The Outpost Screenshots:

The Outpost

The Outpost

The Outpost

The Outpost

Download 1080p – 5.19GB

For All Multi Audio Movies Click Here

Facebook Comments Box

Duration: 123 min

Quality: WEB-DL

Release:

IMDb: 6.8

The Outpost 2019 Hindi Multi
The Outpost 2019 Hindi Multi
The Outpost 2019 Hindi Multi
The Outpost 2019 Hindi Multi
The Outpost 2019 Hindi Multi
The Outpost 2019 Hindi Multi
The Outpost 2019 Hindi Multi