0
1 Star2 Stars3 Stars4 Stars5 Stars (No Ratings Yet)
Loading...

Titli 2002 AMZN WEB-DL[First On Net]

Titli 2002

The First Monsoon Day Drama | 146min 7.6
Director: Rituparno GhoshWriter: Rituparno GhoshStars: Aparna Sen, Mithun Chakraborty, Dipankar DeySummary: A young girl's crush on a movie star has a chance of blossoming into love when the pair meet...but fate has a twist in store.

Titli

Media-Info Titli 2002

Titli 2002 Bengali 1080p AMZN WEB-DL DDP2.0 H264 ESub – WiKi-PiKi.mkv
Format : Matroska
Format version : Version 4
File size : 4.72 GiB
Duration : 1 h 43 min
Overall bit rate : 6 503 kb/s
Movie name : GoldminesHD.Club
Encoded date : UTC 2021-09-17 03:21:55
Writing application : mkvmerge v56.1.0 (‘My Friend’) 64-bit
Writing library : libebml v1.4.2 + libmatroska v1.6.4
Attachments : WiKi-PiKi.jpg

Video
ID : 1
Format : AVC
Format/Info : Advanced Video Codec
Format profile : [email protected]
Format settings : CABAC / 4 Ref Frames
Format settings, CABAC : Yes
Format settings, Reference frames : 4 frames
Codec ID : V_MPEG4/ISO/AVC
Duration : 1 h 43 min
Bit rate : 6 277 kb/s
Width : 1 920 pixels
Height : 1 080 pixels
Display aspect ratio : 16:9
Frame rate mode : Constant
Frame rate : 25.000 FPS
Color space : YUV
Chroma subsampling : 4:2:0
Bit depth : 8 bits
Scan type : Progressive
Bits/(Pixel*Frame) : 0.121
Stream size : 4.55 GiB (97%)
Title : [email protected]
Default : Yes
Forced : No
Color range : Limited
Color primaries : BT.709
Transfer characteristics : BT.709
Matrix coefficients : BT.709

Audio
ID : 2
Format : E-AC-3
Format/Info : Enhanced AC-3
Commercial name : Dolby Digital Plus
Codec ID : A_EAC3
Duration : 1 h 43 min
Bit rate mode : Constant
Bit rate : 224 kb/s
Channel(s) : 2 channels
Channel layout : L R
Sampling rate : 48.0 kHz
Frame rate : 31.250 FPS (1536 SPF)
Compression mode : Lossy
Stream size : 166 MiB (3%)
Title : [email protected]
Language : Bengali
Service kind : Complete Main
Default : Yes
Forced : No

Text
ID : 3
Format : UTF-8
Codec ID : S_TEXT/UTF8
Codec ID/Info : UTF-8 Plain Text
Duration : 1 h 42 min
Bit rate : 73 b/s
Count of elements : 1536
Stream size : 55.2 KiB (0%)
Title : [email protected]
Language : English
Default : Yes
Forced : No

Titli Screenshots:























Download 1080p – 4.72GB

For All Bengali Movies Click Here

Facebook Comments Box

Duration: 146 min

Quality: WEB-DL

Release:

IMDb: 7.6

Titli 2002 AMZN WEB-DL[First On Net]
Titli 2002 AMZN WEB-DL[First On Net]
Titli 2002 AMZN WEB-DL[First On Net]
Titli 2002 AMZN WEB-DL[First On Net]