0
1 Star2 Stars3 Stars4 Stars5 Stars (No Ratings Yet)
Loading...

Total Dadagiri 2018 AMZN WEB-DL

Total Dadagiri

(2018) Romance | 130min | January 19, 2018 (India) 5.0
Director: Pathikrit BasuWriter: N.K. SalilStars: Yash Dasgupta, Mimi Chakraborty, Rajatabha DuttaSummary: Total Dadagiri is a romantic comedy drama directed Pathikrit Basu. This is an entertaining story involving Joy (Yash) and Jonaki (Mimi) , two college graduates who fall in love, after a few twists and turns how they win the acceptance of their parents. —padmashri

Photos


See all photos >>

Total Dadagiri

Media-Info Total Dadagiri

Total Dadagiri 2018 Bengali 1080p AMZN WEB-DL DDP2.0 H264 – WiKi-PiKi.mkv
Format : Matroska
Format version : Version 4
File size : 9.83 GiB
Duration : 2 h 26 min
Overall bit rate mode : Constant
Overall bit rate : 9 637 kb/s
Movie name : GoldminesHD.Club
Encoded date : UTC 2021-10-22 18:39:37
Writing application : mkvmerge v43.0.0 (‘The Quartermaster’) 64-bit
Writing library : libebml v1.3.10 + libmatroska v1.5.2

Video
ID : 1
Format : AVC
Format/Info : Advanced Video Codec
Format profile : [email protected]
Format settings : CABAC / 4 Ref Frames
Format settings, CABAC : Yes
Format settings, Reference frames : 4 frames
Codec ID : V_MPEG4/ISO/AVC
Duration : 2 h 26 min
Bit rate mode : Constant
Bit rate : 9 412 kb/s
Nominal bit rate : 10 000 kb/s
Width : 1 920 pixels
Height : 1 080 pixels
Display aspect ratio : 16:9
Frame rate mode : Constant
Frame rate : 24.000 FPS
Color space : YUV
Chroma subsampling : 4:2:0
Bit depth : 8 bits
Scan type : Progressive
Bits/(Pixel*Frame) : 0.189
Stream size : 9.60 GiB (98%)
Title : [email protected]
Default : Yes
Forced : No
Color range : Limited
Color primaries : BT.709
Transfer characteristics : BT.709
Matrix coefficients : BT.709

Audio
ID : 2
Format : E-AC-3
Format/Info : Enhanced AC-3
Commercial name : Dolby Digital Plus
Codec ID : A_EAC3
Duration : 2 h 26 min
Bit rate mode : Constant
Bit rate : 224 kb/s
Channel(s) : 2 channels
Channel layout : L R
Sampling rate : 48.0 kHz
Frame rate : 31.250 FPS (1536 SPF)
Compression mode : Lossy
Stream size : 234 MiB (2%)
Title : [email protected]
Language : Bengali
Service kind : Complete Main
Default : No
Forced : No

Total Dadagiri Screenshots:















AMZN WEB-DL Download Link:

Download 1080p – 9.83GB

Download 1080p HEVC – 6.2GB

Download 720p HEVC – 1.75GB

WEB-DL Download Link:

Download 1080p – 4.2GB

For All Bengali Movies Click Here

Facebook Comments Box

Duration: 130 min

Quality: WEB-DL

Release:

IMDb: 5.1