0
1 Star2 Stars3 Stars4 Stars5 Stars (No Ratings Yet)
Loading...

True 2021 AMZN WEB-DL

True 2021

(2021) Thriller | 92min | April 30, 2021 (India) 8.1
Director: Mandala SyamWriter: Mandala SyamStars: Harish Vinay, Lavanya, Madhusudhan RaoSummary: The mysterious circumstances around the death of Vignesh's father leads him down a path filled with unexpected twists and turns. Nothing is as it seems, but will the truth finally set him free?

Photos


See all photos >>

True 2021:Tamil Movies; goldmineshd.club;

Media-Info True

True 2021 Telugu 1080p AMZN WEB-DL DDP5.1 H264 ESub – WiKi-PiKi.mkv
Format : Matroska
Format version : Version 4
File size : 4.20 GiB
Duration : 1 h 29 min
Overall bit rate : 6 680 kb/s
Movie name : GoldminesHD.Club
Encoded date : UTC 2021-08-16 05:12:31
Writing application : mkvmerge v56.1.0 (‘My Friend’) 64-bit
Writing library : libebml v1.4.2 + libmatroska v1.6.4

Video
ID : 1
Format : AVC
Format/Info : Advanced Video Codec
Format profile : [email protected]
Format settings : CABAC / 4 Ref Frames
Format settings, CABAC : Yes
Format settings, Reference frames : 4 frames
Codec ID : V_MPEG4/ISO/AVC
Duration : 1 h 29 min
Bit rate : 6 038 kb/s
Width : 1 920 pixels
Height : 1 080 pixels
Display aspect ratio : 16:9
Frame rate mode : Constant
Frame rate : 24.000 FPS
Color space : YUV
Chroma subsampling : 4:2:0
Bit depth : 8 bits
Scan type : Progressive
Bits/(Pixel*Frame) : 0.121
Stream size : 3.79 GiB (90%)
Title : [email protected]
Default : Yes
Forced : No
Color range : Limited
Color primaries : BT.709
Transfer characteristics : BT.709
Matrix coefficients : BT.709

Audio
ID : 2
Format : E-AC-3
Format/Info : Enhanced AC-3
Commercial name : Dolby Digital Plus
Codec ID : A_EAC3
Duration : 1 h 29 min
Bit rate mode : Constant
Bit rate : 640 kb/s
Channel(s) : 6 channels
Channel layout : L R C LFE Ls Rs
Sampling rate : 48.0 kHz
Frame rate : 31.250 FPS (1536 SPF)
Compression mode : Lossy
Stream size : 412 MiB (10%)
Title : [email protected]
Language : Telugu
Service kind : Complete Main
Default : Yes
Forced : No

Text
ID : 3
Format : UTF-8
Codec ID : S_TEXT/UTF8
Codec ID/Info : UTF-8 Plain Text
Duration : 1 h 26 min
Bit rate : 57 b/s
Count of elements : 1306
Stream size : 36.6 KiB (0%)
Title : [email protected]
Language : English
Default : Yes
Forced : No

Screenshots:
































Download 1080p – 4.20GB

For All Tamil Movies Click Here

Facebook Comments Box

Duration:

Quality: WEB-DL

Release: