0
1 Star2 Stars3 Stars4 Stars5 Stars (No Ratings Yet)
Loading...

Tui Sudhu Amar 2018 AMZN WEB-DL

Tui Sudhu Amar 2018

Tui Sudhu Amar 2018

Media-Info Tui Sudhu Amar 2018

Tui Sudhu Amar 2018 Bengali 1080p AMZN WEB-DL DDP2.0 H264 ESub – WiKi-PiKi.mkv
Format : Matroska
Format version : Version 4
File size : 8.37 GiB
Duration : 2 h 20 min
Overall bit rate : 8 529 kb/s
Movie name : GoldminesHD.Club
Encoded date : UTC 2021-08-28 09:31:55
Writing application : mkvmerge v56.1.0 (‘My Friend’) 64-bit
Writing library : libebml v1.4.2 + libmatroska v1.6.4
Attachments : WiKi-PiKi.jpg

Video
ID : 1
Format : AVC
Format/Info : Advanced Video Codec
Format profile : [email protected]
Format settings : CABAC / 4 Ref Frames
Format settings, CABAC : Yes
Format settings, Reference frames : 4 frames
Codec ID : V_MPEG4/ISO/AVC
Duration : 2 h 20 min
Bit rate : 8 303 kb/s
Width : 1 920 pixels
Height : 816 pixels
Display aspect ratio : 2.35:1
Frame rate mode : Constant
Frame rate : 24.000 FPS
Color space : YUV
Chroma subsampling : 4:2:0
Bit depth : 8 bits
Scan type : Progressive
Bits/(Pixel*Frame) : 0.221
Stream size : 8.15 GiB (97%)
Title : [email protected]
Default : Yes
Forced : No
Color range : Limited
Color primaries : BT.709
Transfer characteristics : BT.709
Matrix coefficients : BT.709

Tui Sudhu Amar 2018

Audio
ID : 2
Format : E-AC-3
Format/Info : Enhanced AC-3
Commercial name : Dolby Digital Plus
Codec ID : A_EAC3
Duration : 2 h 20 min
Bit rate mode : Constant
Bit rate : 224 kb/s
Channel(s) : 2 channels
Channel layout : L R
Sampling rate : 48.0 kHz
Frame rate : 31.250 FPS (1536 SPF)
Compression mode : Lossy
Delay relative to video : -83 ms
Stream size : 225 MiB (3%)
Title : [email protected]
Language : Bengali
Service kind : Complete Main
Default : Yes
Forced : No

Text
ID : 3
Format : UTF-8
Codec ID : S_TEXT/UTF8
Codec ID/Info : UTF-8 Plain Text
Duration : 2 h 16 min
Bit rate : 56 b/s
Count of elements : 1980
Stream size : 56.4 KiB (0%)
Title : [email protected]
Language : English
Default : Yes
Forced : No

Tui Sudhu Amar 2018 Screenshots:



















WEB-DL Download Link:

Download 1080p – 8.37GB

WEB-RIP Download Link:

Download 1080p – 2.89GB

Download 720p – 1.4GB

Download 360p – 402MB

For All Bengali Movies Click Here

Facebook Comments Box
Tui Sudhu Amar 2018 AMZN WEB-DL