0
1 Star2 Stars3 Stars4 Stars5 Stars (No Ratings Yet)
Loading...

Udanpirappe 2021 Tamil AMZN WEB-DL

Udanpirappe

Drama | 137min | October 14, 2021 (India) 6.1
Director: Era SaravananStars: Samuthirakani, Jyotika, Aadukalam NarenSummary: While Sargunam, Mathangi's husband insists on going by the law diligently, Vairavan believes that justice must be fought over. The rift between both the characters, Sargunam and Vairavan aggravates and Mathangi's efforts seem wasted. The suspense is that will the character of Mathangi succeed in uniting her family in this emotional drama.

Photos


See all photos >>

Udanpirappe

Media-Info Udanpirappe

Udanpirappe.2021.1080p.AMZN.WEB-DL.DDP5.1.H.264-Telly.mkv
Format : Matroska
Format version : Version 4
File size : 7.56 GiB
Duration : 2 h 17 min
Overall bit rate : 7 844 kb/s
Movie name : Telly
Encoded date : UTC 2021-10-13 16:39:46
Writing application : mkvmerge v59.0.0 (‘Shining Star’) 64-bit
Writing library : libebml v1.4.2 + libmatroska v1.6.4

Video
ID : 1
Format : AVC
Format/Info : Advanced Video Codec
Format profile : [email protected]
Format settings : CABAC / 4 Ref Frames
Format settings, CABAC : Yes
Format settings, ReFrames : 4 frames
Codec ID : V_MPEG4/ISO/AVC
Duration : 2 h 17 min
Bit rate mode : Constant
Bit rate : 7 202 kb/s
Nominal bit rate : 10 000 kb/s
Width : 1 920 pixels
Height : 800 pixels
Display aspect ratio : 2.40:1
Frame rate mode : Constant
Frame rate : 24.000 FPS
Color space : YUV
Chroma subsampling : 4:2:0
Bit depth : 8 bits
Scan type : Progressive
Bits/(Pixel*Frame) : 0.195
Stream size : 6.94 GiB (92%)
Default : Yes
Forced : No
Color range : Limited
Color primaries : BT.709
Transfer characteristics : BT.709
Matrix coefficients : BT.709

Audio
ID : 2
Format : E-AC-3
Format/Info : Enhanced AC-3
Commercial name : Dolby Digital Plus
Codec ID : A_EAC3
Duration : 2 h 17 min
Bit rate mode : Constant
Bit rate : 640 kb/s
Channel(s) : 6 channels
Channel layout : L R C LFE Ls Rs
Sampling rate : 48.0 kHz
Frame rate : 31.250 FPS (1536 SPF)
Compression mode : Lossy
Stream size : 631 MiB (8%)
Title : Tamil
Language : Tamil
Service kind : Complete Main
Default : No
Forced : No

Text #1
ID : 3
Format : UTF-8
Codec ID : S_TEXT/UTF8
Codec ID/Info : UTF-8 Plain Text
Duration : 2 h 16 min
Bit rate : 65 b/s
Count of elements : 1899
Stream size : 65.5 KiB (0%)
Title : English [SDH]
Language : English
Default : No
Forced : No

Text #2
ID : 4
Format : UTF-8
Codec ID : S_TEXT/UTF8
Codec ID/Info : UTF-8 Plain Text
Duration : 2 h 16 min
Bit rate : 65 b/s
Count of elements : 1881
Stream size : 65.2 KiB (0%)
Title : English
Language : English
Default : No
Forced : No

Udanpirappe Screenshots:

Udanpirappe

Udanpirappe

Udanpirappe

Download 1080p – 7.56GB

Download 720p – 2.27GB

Download 1080p HEVC – 3.69GB

Download 720p HEVC – 1.82GB

For All Tamil Movies Click Here

Facebook Comments Box

Duration: N/A

Quality: WEB-DL

Release:

IMDb: N/A

Udanpirappe 2021 Tamil AMZN WEB-DL
Udanpirappe 2021 Tamil AMZN WEB-DL
Udanpirappe 2021 Tamil AMZN WEB-DL
Udanpirappe 2021 Tamil AMZN WEB-DL