0
1 Star2 Stars3 Stars4 Stars5 Stars (No Ratings Yet)
Loading...

V 2020 Hindi AMZN WEB-DL

V 2020 Hindi

V (2020) Action, Crime, Thriller | 140min | 5 September 2020 (USA) 6.6
Director: Mohana Krishna IndragantiWriter: Mohana Krishna IndragantiStars: Nani, Sudheer Babu Posani, Nivetha ThomasSummary: An action-thriller centered on the showdown between a celebrated cop and a serial killer who challenges the former to nab him.

Photos


See all photos >>

V 2020 Hindi

Media-Info V 2020 Hindi

 Uncut 1080p AMZN WEB-DL DDP5.1 H264 MSub – WiKi-PiKi.mkv
Format : Matroska
Format version : Version 4
File size : 5.39 GiB
Duration : 2 h 20 min
Overall bit rate : 5 497 kb/s
Movie name : GoldminesHD.Club
Encoded date : UTC 2021-09-07 10:09:09
Writing application : mkvmerge v56.1.0 (‘My Friend’) 64-bit
Writing library : libebml v1.4.2 + libmatroska v1.6.4
Attachments : WiKi-PiKi.jpg

Video
ID : 1
Format : AVC
Format/Info : Advanced Video Codec
Format profile : [email protected]
Format settings : CABAC / 4 Ref Frames
Format settings, CABAC : Yes
Format settings, Reference frames : 4 frames
Codec ID : V_MPEG4/ISO/AVC
Duration : 2 h 20 min
Bit rate : 4 855 kb/s
Width : 1 920 pixels
Height : 800 pixels
Display aspect ratio : 2.40:1
Frame rate mode : Constant
Frame rate : 24.000 FPS
Color space : YUV
Chroma subsampling : 4:2:0
Bit depth : 8 bits
Scan type : Progressive
Bits/(Pixel*Frame) : 0.132
Stream size : 4.76 GiB (88%)
Title : [email protected]
Default : Yes
Forced : No
Color range : Limited
Color primaries : BT.709
Transfer characteristics : BT.709
Matrix coefficients : BT.709

Audio
ID : 2
Format : E-AC-3
Format/Info : Enhanced AC-3
Commercial name : Dolby Digital Plus
Codec ID : A_EAC3
Duration : 2 h 20 min
Bit rate mode : Constant
Bit rate : 640 kb/s
Channel(s) : 6 channels
Channel layout : L R C LFE Ls Rs
Sampling rate : 48.0 kHz
Frame rate : 31.250 FPS (1536 SPF)
Compression mode : Lossy
Delay relative to video : 28 ms
Stream size : 643 MiB (12%)
Title : [email protected]
Language : Hindi
Service kind : Complete Main
Default : Yes
Forced : Yes

Text #1
ID : 3
Format : UTF-8
Codec ID : S_TEXT/UTF8
Codec ID/Info : UTF-8 Plain Text
Duration : 2 h 16 min
Bit rate : 63 b/s
Count of elements : 2066
Stream size : 62.9 KiB (0%)
Title : WiKi-[email protected]
Language : English
Default : Yes
Forced : No

Text #2
ID : 4
Format : UTF-8
Codec ID : S_TEXT/UTF8
Codec ID/Info : UTF-8 Plain Text
Duration : 2 h 16 min
Bit rate : 94 b/s
Count of elements : 1928
Stream size : 93.8 KiB (0%)
Title : [email protected]
Language : Arabic
Default : No
Forced : No

Text #3
ID : 5
Format : UTF-8
Codec ID : S_TEXT/UTF8
Codec ID/Info : UTF-8 Plain Text
Duration : 2 h 15 min
Bit rate : 95 b/s
Count of elements : 1605
Stream size : 95.1 KiB (0%)
Title : [email protected]
Language : Greek
Default : No
Forced : No

Text #4
ID : 6
Format : UTF-8
Codec ID : S_TEXT/UTF8
Codec ID/Info : UTF-8 Plain Text
Duration : 2 h 16 min
Bit rate : 75 b/s
Count of elements : 1900
Stream size : 75.4 KiB (0%)
Title : [email protected]
Language : Hebrew
Default : No
Forced : No

V 2020 Hindi Screenshots:




































Download 1080p – 5.39GB

For All Hindi Movies Click Here

Facebook Comments Box

Duration: 140 min

Quality: WEB-DL

Release:

IMDb: 6.9

V 2020 Hindi AMZN WEB-DL
V 2020 Hindi AMZN WEB-DL
V 2020 Hindi AMZN WEB-DL
V 2020 Hindi AMZN WEB-DL
V 2020 Hindi AMZN WEB-DL
V 2020 Hindi AMZN WEB-DL
V 2020 Hindi AMZN WEB-DL
V 2020 Hindi AMZN WEB-DL
V 2020 Hindi AMZN WEB-DL
V 2020 Hindi AMZN WEB-DL
V 2020 Hindi AMZN WEB-DL
V 2020 Hindi AMZN WEB-DL
V 2020 Hindi AMZN WEB-DL
V 2020 Hindi AMZN WEB-DL
V 2020 Hindi AMZN WEB-DL
V 2020 Hindi AMZN WEB-DL
V 2020 Hindi AMZN WEB-DL
V 2020 Hindi AMZN WEB-DL
V 2020 Hindi AMZN WEB-DL
V 2020 Hindi AMZN WEB-DL
V 2020 Hindi AMZN WEB-DL